Завантажити та скачати торренти українською


SVОБОДА - ПЕРВАК (2009) [FLAC] | Ska Punk

Нові коментарі

Нова тема   Відповісти
Останній раз роздавалося iwest (2014-04-10)
Автор Повідомлення
iwan wan 
VIP


З нами з: 01.10.09
Востаннє: 08.12.16
Повідомлень: 1762

2010-10-15 22:08  
SVОБОДА - ПЕРВАК (2009) [FLAC] | Ska Punk



Стиль: Ska Punk
Країна, місто: Росія , Санкт-Петербург
Сайти: Офіційний сайт
Видавець: АнТроп
Виконавці:
Олександр Руденко - вокал
Вадим Бабанов - барабани
Сергій Клоз - гітара
Валентин Ходаков - бас-гітара
Михайло Курільчук - труба
Сергій Лубарський - тромбон
Іван Чічірко - баян
Влад Курмаєв - акордеон
Пісні:
    1. Ла-ла
    2. Чоботи
    3. Погода (рус.)
    4. Ганджубейло
    5. Маруся
    6. Мама Анархия
    7. Ципленок жареный
    8. Шизгара
    9. Ты
    10. Деньги
    11. Весела країна
    12. П'яницi нам не друзi
    13. NATO
    Бонус
    14. Погода(укр)
    15. Ганджобейло
    16. Детство

Тривалість: 01:02:02
Мова: українська(1,2,4,5,8,11-13,15,15) , російська (3,6,7,9,16)
Аудіо-кодек: FLAC
Бітрейт: 1009 кб/с
Джерело: Інший трекер
Додаткова інформація:
Група була утворена в 2005 в Санкт-Петербурзі, Росія.
Більшість пісень українською мовою,
Засновник і фронтмен групи Олександр народився в Україні.
Стиль групи?
Ска-панк з елементами народної творчості.
Log

Exact Audio Copy V0.99 prebeta 4 from 23. January 2008
EAC extraction logfile from 26. July 2008, 11:25
SVOБОДА/ПЕРВАК
Used drive : HL-DT-STRW/DVD GCC-4241N Adapter: 1 ID: 0

Read mode : Secure
Utilize accurate stream : Yes
Defeat audio cache : Yes
Make use of C2 pointers : No
Combined read/write offset correction : 0
Overread into Lead-In and Lead-Out : No
Fill up missing offset samples with silence : Yes
Delete leading and trailing silent blocks : No
Null samples used in CRC calculations : Yes
Used interface : Native Win32 interface for Win NT & 2000
Used output format : User Defined Encoder
Selected bitrate : 768 kBit/s
Quality : High
Add ID3 tag : No
Command line compressor : C:\Program Files\Exact Audio Copy\FLAC\FLAC.EXE
Additional command line options : -6 -V -T "ARTIST=%a" -T "TITLE=%t" -T "ALBUM=%g" -T "DATE=%y" -T "TRACKNUMBER=%n" -T "GENRE=%m" -T "COMMENT=%e" %s -o %d
TOC of the extracted CD
Track | Start | Length | Start sector | End sector
---------------------------------------------------------
1 | 0:00.00 | 3:08.28 | 0 | 14127
2 | 3:08.28 | 4:38.28 | 14128 | 35005
3 | 7:46.56 | 5:05.60 | 35006 | 57940
4 | 12:52.41 | 3:15.70 | 57941 | 72635
5 | 16:08.36 | 4:01.72 | 72636 | 90782
6 | 20:10.33 | 2:28.10 | 90783 | 101892
7 | 22:38.43 | 3:29.48 | 101893 | 117615
8 | 26:08.16 | 2:41.51 | 117616 | 129741
9 | 28:49.67 | 4:19.08 | 129742 | 149174
10 | 33:09.00 | 5:37.53 | 149175 | 174502
11 | 38:46.53 | 4:11.70 | 174503 | 193397
12 | 42:58.48 | 3:03.58 | 193398 | 207180
13 | 46:02.31 | 3:33.43 | 207181 | 223198
14 | 49:35.74 | 3:59.49 | 223199 | 241172
15 | 53:35.48 | 3:20.22 | 241173 | 256194
16 | 56:55.70 | 5:05.72 | 256195 | 279141

Range status and errors
Selected range
Filename D:\FLAC\SVOБОДА/ПЕРВАКwav
Peak level 100.0 %
Range quality 99.9 %
Copy CRC D1E608FB
Copy OK
No errors occurred
End of status report
Також на Толоці Ви можете завантажити
SVОБОДА - ПЕРВАК (2009) [MP3] | Ska Punk

Якщо Ви справді бажаєте підтримати українське - після прослуховування, якщо музика вам сподобалась, придбайте ліцензійний диск. Підтримаймо вітчизняних виконавців!


Срібний реліз (на рейтинг впливає 50% завантаженого)
 Трекер:    Зареєстрований   

Завантажити / скачати українську музику



відео для новачків



 Зареєстрований:   2010-10-15 22:13
 Розмір:   449 MB 
 Оцінка музики:   10/10 (Голосів: 5)
   
ssTAss 
Модератор музики


З нами з: 05.07.08
Востаннє: 08.12.16
Повідомлень: 10947

2010-10-15 22:59  
додайте в описі вміст лог-файлу

Додано через 5 хвилин 13 секунд:

і посилання на Ваш ж мр-3 реліз (а там на цей)
http://toloka.to/p201152

iwan wan 
VIP


З нами з: 01.10.09
Востаннє: 08.12.16
Повідомлень: 1762

2010-10-17 20:10  
Лог і перехресні посилання додав
Ваш часовий пояс: GMT + 2 Години

Нова тема   Відповісти