Завантажити та скачати торренти українською


Очеретяний Кіт - Мандрівка в Косаківку (2006) [FLAC] | Folk / Jazz

Нові коментарі

Нова тема   Відповісти
Автор Повідомлення
Lev 
VIP


З нами з: 14.10.09
Востаннє: 05.12.16
Повідомлень: 1819

2010-10-15 03:10  
Очеретяний Кіт - Мандрівка в Косаківку (2006) [FLAC] | Folk / Jazz



Стиль: Folk / Jazz
Країна, місто: Україна, Вінниця
Видавець: UKRmusic
Виконавці:
Роман Кріль - голос
Микола Доляк - флейта, голос
Олена Шевченко - скрипка, голос
Володимир Войчишин - інше, голос, звук

а також

Костянтин Бушинський (Пропала Грамота) - гітара (11)
Аліна Лєрман - скрипка (12)

авторство:

чумацькі народні пісні - 3, 4, 5 (адаптація Романа Кріля)
коломийки - 7, 8, 12 (адаптація Романа Кріля)
Анатолій Секретарьов - 2, 6, 10, 13
Роман Кріль - 1, 9
Володимир Войчишин - 11

Аранжування : "Очеретяний Кіт".
Пісні:
    01. Мандрівка в Косаківку (03:10)
    02. Тихо падає сніг (02:53)
    03. Волики (04:20)
    04. Буркун-зілля (03:54)
    05. Чумак воли завертає (04:10)
    06. Електричка (03:49)
    07. Із суботи на неділю (02:25)
    08. На високій полонині (02:04)
    09. Залиши це (03:38)
    10. Простір (04:03)
    11. Радіохед (04:26)
    12. Ой яворе зелененький (04:18)
    13. Єврейський хлопчик (02:54)

Тривалість: 00:46:02
Мова: українська
Аудіо-кодек: FLAC
Бітрейт: 725-910 кб/с, 16 bit / 44100 Hz
Джерело: власний диск > ріп EAC
Додаткова інформація:
log
Exact Audio Copy V0.99 prebeta 5 from 4. May 2009

EAC extraction logfile from 15. October 2010, 1:45

Очеретяний Кіт / Мандрівка в Косаківку

Used drive : TEAC CD-W540E Adapter: 1 ID: 0

Read mode : Secure
Utilize accurate stream : Yes
Defeat audio cache : Yes
Make use of C2 pointers : No

Read offset correction : 686
Overread into Lead-In and Lead-Out : No
Fill up missing offset samples with silence : Yes
Delete leading and trailing silent blocks : No
Null samples used in CRC calculations : Yes
Used interface : Installed external ASPI interface
Gap handling : Not detected, thus appended to previous track

Used output format : Internal WAV Routines
Sample format : 44.100 Hz; 16 Bit; Stereo

TOC of the extracted CD

Track | Start | Length | Start sector | End sector
---------------------------------------------------------
1 | 0:00.00 | 3:10.11 | 0 | 14260
2 | 3:10.11 | 2:52.47 | 14261 | 27207
3 | 6:02.58 | 4:19.55 | 27208 | 46687
4 | 10:22.38 | 3:53.57 | 46688 | 64219
5 | 14:16.20 | 4:09.70 | 64220 | 82964
6 | 18:26.15 | 3:48.65 | 82965 | 100129
7 | 22:15.05 | 2:25.05 | 100130 | 111009
8 | 24:40.10 | 2:04.16 | 111010 | 120325
9 | 26:44.26 | 3:37.52 | 120326 | 136652
10 | 30:22.03 | 4:02.48 | 136653 | 154850
11 | 34:24.51 | 4:25.51 | 154851 | 174776
12 | 38:50.27 | 4:17.72 | 174777 | 194123
13 | 43:08.24 | 2:53.62 | 194124 | 207160

Track 1

Filename G:\Очеретяний Кіт - Мандрівка в Косаківку [2006] FLAC\1 , Mandrivka V Kosakivku.wav

Peak level 97.9 %
Track quality 100.0 %
Test CRC 620B371E
Copy CRC 620B371E
Track not present in AccurateRip database
Copy OK

Track 2

Filename G:\Очеретяний Кіт - Мандрівка в Косаківку [2006] FLAC\2 , Tyxo Padae Snig.wav

Peak level 97.9 %
Track quality 100.0 %
Test CRC EB5B2140
Copy CRC EB5B2140
Track not present in AccurateRip database
Copy OK

Track 3

Filename G:\Очеретяний Кіт - Мандрівка в Косаківку [2006] FLAC\3. , Volyky.wav

Peak level 97.9 %
Track quality 100.0 %
Test CRC F3AB4949
Copy CRC F3AB4949
Track not present in AccurateRip database
Copy OK

Track 4

Filename G:\Очеретяний Кіт - Мандрівка в Косаківку [2006] FLAC\4. Burkun , Zillya.wav

Peak level 97.9 %
Track quality 99.9 %
Test CRC 0FD8654E
Copy CRC 0FD8654E
Track not present in AccurateRip database
Copy OK

Track 5

Filename G:\Очеретяний Кіт - Мандрівка в Косаківку [2006] FLAC\10 , 4Umak Voly Zavertae.wav

Peak level 89.8 %
Track quality 100.0 %
Test CRC 0B23BBC7
Copy CRC 0B23BBC7
Track not present in AccurateRip database
Copy OK

Track 6

Filename G:\Очеретяний Кіт - Мандрівка в Косаківку [2006] FLAC\6. , Elektry4Ka.wav

Peak level 97.9 %
Track quality 100.0 %
Test CRC 713FD8E0
Copy CRC 713FD8E0
Track not present in AccurateRip database
Copy OK

Track 7

Filename G:\Очеретяний Кіт - Мандрівка в Косаківку [2006] FLAC\7 , Iz Suboty.wav

Peak level 82.7 %
Track quality 100.0 %
Test CRC 0DE9D51D
Copy CRC 0DE9D51D
Track not present in AccurateRip database
Copy OK

Track 8

Filename G:\Очеретяний Кіт - Мандрівка в Косаківку [2006] FLAC\8 , Nv Polonyni.wav

Peak level 90.4 %
Track quality 99.9 %
Test CRC 933E9D40
Copy CRC 933E9D40
Track not present in AccurateRip database
Copy OK

Track 9

Filename G:\Очеретяний Кіт - Мандрівка в Косаківку [2006] FLAC\13 , Zalyshy Ce.wav

Peak level 99.7 %
Track quality 100.0 %
Test CRC 71ECC9F1
Copy CRC 71ECC9F1
Track not present in AccurateRip database
Copy OK

Track 10

Filename G:\Очеретяний Кіт - Мандрівка в Косаківку [2006] FLAC\9. , Prostir.wav

Peak level 73.2 %
Track quality 100.0 %
Test CRC 3994FCBC
Copy CRC 3994FCBC
Track not present in AccurateRip database
Copy OK

Track 11

Filename G:\Очеретяний Кіт - Мандрівка в Косаківку [2006] FLAC\12. , Radiohead.wav

Peak level 73.8 %
Track quality 100.0 %
Test CRC FE47DA49
Copy CRC FE47DA49
Track not present in AccurateRip database
Copy OK

Track 12

Filename G:\Очеретяний Кіт - Мандрівка в Косаківку [2006] FLAC\11 , Oy Yavore.wav

Peak level 83.3 %
Track quality 100.0 %
Test CRC 0153FBA0
Copy CRC 0153FBA0
Track not present in AccurateRip database
Copy OK

Track 13

Filename G:\Очеретяний Кіт - Мандрівка в Косаківку [2006] FLAC\14 , Evreysky Xlop4Ik.wav

Peak level 86.1 %
Track quality 100.0 %
Test CRC E3E17091
Copy CRC E3E17091
Track not present in AccurateRip database
Copy OK

None of the tracks are present in the AccurateRip database

No errors occurred

End of status report


Якщо Ви справді бажаєте підтримати українське - після прослуховування, якщо музика вам сподобалась, придбайте ліцензійний диск. Підтримаймо вітчизняних виконавців!


Срібний реліз (на рейтинг впливає 50% завантаженого)
 Трекер:    Зареєстрований   

Завантажити / скачати українську музику



відео для новачків



 Зареєстрований:   2010-10-15 03:10
 Розмір:   274 MB 
 Оцінка музики:   10/10 (Голосів: 9)
   
NY1AM 
Свій


З нами з: 30.01.09
Востаннє: 24.06.16
Повідомлень: 79

2011-01-16 14:39  
роздайте, будь ласка
Ваш часовий пояс: GMT + 2 Години

Нова тема   Відповісти