Завантажити та скачати торренти українською


KNOB feat. SEINE - Пальне (2009) [FLAC] | Trip-Hop / Experimental

Нові коментарі

Нова тема   Відповісти
Автор Повідомлення
Lev 
VIP


З нами з: 14.10.09
Востаннє: 09.12.16
Повідомлень: 1819

2010-10-14 22:30  
KNOB feat. SEINE - Пальне (2009) [FLAC] | Trip-Hop / Experimental



Стиль: Trip-Hop / Experimental / Alternative
Країна, місто: Україна, Київ
Сайти:

Видавець: Іншамузика, ЯОК м'юзік
Виконавці:
SATORY SEINE - лірика, вокал
KNOB - музика, запис, зведення, мастеринг

LaBIZz - художник
BOMBER - дизайн

Пісні:
    01. Пароль (04:37)
    02. Mute (03:31)
    03. Вiдлига (04:21)
    04. Munks (04:42)
    05. П'янке (04:42)
    06. Screw (05:43)
    07. Пальне (04:51)
    08. Film3 (04:17)
    09. Епiлог (05:21)
    10. Like120bpm (03:06)
    11. Паралелi (04:43)
    12. Retrouth (04:06)

Тривалість: 00:53:57
Мова: українська (1,3,5,7,9,11), інструментальні композиції (2,4,6,8,10,12)
Аудіо-кодек: FLAC
Бітрейт: 970-1084 кб/с, 16 bit / 44100 Hz
Джерело: власний диск > ріп EAC
Додаткова інформація:
log
Exact Audio Copy V0.99 prebeta 5 from 4. May 2009

EAC extraction logfile from 14. October 2010, 20:56

KNOB feat SEINE / Пальне

Used drive : TEAC CD-W540E Adapter: 1 ID: 0

Read mode : Secure
Utilize accurate stream : Yes
Defeat audio cache : Yes
Make use of C2 pointers : No

Read offset correction : 686
Overread into Lead-In and Lead-Out : No
Fill up missing offset samples with silence : Yes
Delete leading and trailing silent blocks : No
Null samples used in CRC calculations : Yes
Used interface : Installed external ASPI interface
Gap handling : Not detected, thus appended to previous track

Used output format : Internal WAV Routines
Sample format : 44.100 Hz; 16 Bit; Stereo

TOC of the extracted CD

Track | Start | Length | Start sector | End sector
---------------------------------------------------------
1 | 0:00.00 | 4:36.66 | 0 | 20765
2 | 4:36.66 | 3:31.15 | 20766 | 36605
3 | 8:08.06 | 4:20.73 | 36606 | 56178
4 | 12:29.04 | 4:41.69 | 56179 | 77322
5 | 17:10.73 | 4:41.68 | 77323 | 98465
6 | 21:52.66 | 5:42.74 | 98466 | 124189
7 | 27:35.65 | 4:51.36 | 124190 | 146050
8 | 32:27.26 | 4:17.02 | 146051 | 165327
9 | 36:44.28 | 5:21.06 | 165328 | 189408
10 | 42:05.34 | 3:06.00 | 189409 | 203358
11 | 45:11.34 | 4:42.70 | 203359 | 224578
12 | 49:54.29 | 4:05.73 | 224579 | 243026

Track 1

Filename G:\KNOB feat SEINE - Пальне [2009] FLAC\KNOB feat SEINE , Parol.wav

Peak level 100.0 %
Track quality 100.0 %
Test CRC C28ACDD9
Copy CRC C28ACDD9
Track not present in AccurateRip database
Copy OK

Track 2

Filename G:\KNOB feat SEINE - Пальне [2009] FLAC\KNOB feat SEINE , Mute.wav

Peak level 100.0 %
Track quality 99.9 %
Test CRC 04A56E02
Copy CRC 04A56E02
Track not present in AccurateRip database
Copy OK

Track 3

Filename G:\KNOB feat SEINE - Пальне [2009] FLAC\KNOB feat SEINE , Vidlyga.wav

Peak level 100.0 %
Track quality 99.9 %
Test CRC 80342915
Copy CRC 80342915
Track not present in AccurateRip database
Copy OK

Track 4

Filename G:\KNOB feat SEINE - Пальне [2009] FLAC\KNOB feat SEINE , Munk.wav

Peak level 100.0 %
Track quality 99.9 %
Test CRC 9B51DA99
Copy CRC 9B51DA99
Track not present in AccurateRip database
Copy OK

Track 5

Filename G:\KNOB feat SEINE - Пальне [2009] FLAC\KNOB feat SEINE , Pyanke.wav

Peak level 100.0 %
Track quality 99.9 %
Test CRC 8DCD684C
Copy CRC 8DCD684C
Track not present in AccurateRip database
Copy OK

Track 6

Filename G:\KNOB feat SEINE - Пальне [2009] FLAC\KNOB feat SEINE , Screw.wav

Peak level 100.0 %
Track quality 99.9 %
Test CRC 078DB667
Copy CRC 078DB667
Track not present in AccurateRip database
Copy OK

Track 7

Filename G:\KNOB feat SEINE - Пальне [2009] FLAC\KNOB feat SEINE , Palne.wav

Peak level 100.0 %
Track quality 100.0 %
Test CRC 0438F2FB
Copy CRC 0438F2FB
Track not present in AccurateRip database
Copy OK

Track 8

Filename G:\KNOB feat SEINE - Пальне [2009] FLAC\KNOB feat SEINE , Film3.wav

Peak level 100.0 %
Track quality 99.9 %
Test CRC 27BF248D
Copy CRC 27BF248D
Track not present in AccurateRip database
Copy OK

Track 9

Filename G:\KNOB feat SEINE - Пальне [2009] FLAC\KNOB feat SEINE , Epilog.wav

Peak level 100.0 %
Track quality 100.0 %
Test CRC 0454FC46
Copy CRC 0454FC46
Track not present in AccurateRip database
Copy OK

Track 10

Filename G:\KNOB feat SEINE - Пальне [2009] FLAC\KNOB feat SEINE , Like120bpm.wav

Peak level 100.0 %
Track quality 100.0 %
Test CRC B1672580
Copy CRC B1672580
Track not present in AccurateRip database
Copy OK

Track 11

Filename G:\KNOB feat SEINE - Пальне [2009] FLAC\KNOB feat SEINE , Paraleli.wav

Peak level 100.0 %
Track quality 99.9 %
Test CRC 97DBA6C4
Copy CRC 97DBA6C4
Track not present in AccurateRip database
Copy OK

Track 12

Filename G:\KNOB feat SEINE - Пальне [2009] FLAC\KNOB feat SEINE , Retrouth.wav

Peak level 100.0 %
Track quality 100.0 %
Test CRC 6E2E4EA9
Copy CRC 6E2E4EA9
Track not present in AccurateRip database
Copy OK

None of the tracks are present in the AccurateRip database

No errors occurred

End of status report
рецензія на альбом від Максима Солодовника
http://solodovnyk.blogspot.com/2009/06/knob-feat-seine-2009.html


Також на Торрент-Толоці Гуртом ви можете знайти :

Knob feat. Seine - Пальне (2009) [MP3]


Якщо Ви справді бажаєте підтримати українське - після прослуховування, якщо музика вам сподобалась, придбайте ліцензійний диск. Підтримаймо вітчизняних виконавців!


Срібний реліз (на рейтинг впливає 50% завантаженого)
 Трекер:    Зареєстрований   

Завантажити / скачати українську музику



відео для новачків



 Зареєстрований:   2010-10-14 22:30
 Розмір:   394 MB 
 Оцінка музики:   10/10 (Голосів: 13)
   
ssTAss 
Модератор музики


З нами з: 05.07.08
Востаннє: 11.12.16
Повідомлень: 10959

2010-10-14 22:52  
Lev, додайте в темі посилання на мр3-реліз
Lev 
VIP


З нами з: 14.10.09
Востаннє: 09.12.16
Повідомлень: 1819

2010-10-14 22:56  
ssTAss

додано

Ваш часовий пояс: GMT + 2 Години

Нова тема   Відповісти