Завантажити та скачати торренти українською


Гуцул Каліпсо - Рекєт-Гангстєра (2007) [FLAC] | Funk / Ska

Нові коментарі

Нова тема   Відповісти
Останній раз роздавалося sten_lum (2014-08-16)
Автор Повідомлення
iwan wan 
VIP


З нами з: 01.10.09
Востаннє: 06.12.16
Повідомлень: 1760

2010-10-12 07:24  
Гуцул Каліпсо - Рекєт-Гангстєра (2007) [FLAC] | Funk / Ska



Стиль: Funk Ska
Країна, місто: Україна , Чернівці

Видавець: UKRmusic
Виконавці:
Валік Шаляпін - барабан
Сергій Шаляпін - бас-гітара
Валєра "Кузя" Марченко - гітара, бек-вокал
Андрій Рудик - вокал, перкусія
Бодьо Федчук - вокал, сопілка
Рибчук Максим - труба
Пісні:
    1.Рекет-Гангстєра
    2. Перефірія
    3. Председатіль
    4. Пастор
    5. Гуцуло-Дракул
    6. Звізда
    7. Віктор Каракулаку
    8. Повєстка
    9. Курви
    10.Вєроніка Кастро
    11.Маневри
    12.Вологя

Тривалість: 00:47:46
Мова: українська
Бітрейт: 912 кб/с
Джерело: Інший трекер
Додаткова інформація:
Гуцул Каліпсо грають музику, яку самі вони називають "гуцул-гоп" і часом визначають її, як суміш буковинського фольклору, гіп-гопу та джазу. Судячи зі всього, Всемогутній Джа теж не оминув своєю прихильною увагою творчі пошуки цих усміхнених бійців ? в результаті на світ з?явилася вельми чудернацька, але й не менш позитивна музична чудасія. Тут у дуже приємних пропорціях перемішалися стьобна, майже панкова гострота слів ? жвава вдача чернівецького фольку в мелодіях ? яскрава бадьорість первинного ска у духовій секції ? і привітний релакс у ритмах, які явно приятелюють із реггі. Втім, так само вони приятелюють і з фанком ? а загальний настрій дихає свободою, завдяки якій дійсно згадуєш про джаз, хоча формально ним тут і не пахне. Але хто сказав, що формальні ознаки важать більше, ніж суб?єктивні відчуття? Зрештою, музику слухає і проживає завжди суто суб?єктивне єство людини. Формальним же ж аналізом переймається її інтелект ? і чи бачив хтось, як цей самий інтелект танцює і преться? А от якийсь звичайний слухач Гуцул Каліпсо, скоріш за все, під час звучання музики робить саме це ? підтанцьовує і преться. Бо їхні пісні можна слухати лише так ? єством. Слухати і посміхатися. www.umka.com.ua

Банда Гуцул Каліпсо вже не однее літечко дає жару на фестах, по клюбах, та чимало де - було б місце, шоб зажечь. Окрім гастрольних роз?їздів, невгамовні чернівчани знаходять час їсти, пити, в армію сходити, тож на запис платівочки знадобився чималий строк. Як то кажуть самі хлопці, альбом писався мало не з моменту заснування гурту. За той час вже якось і призабулося в народі, хто такі рекетіри і Вєроніка Кастро. Однак, музика, як є, екстримально актуальна.
Шанувальники укр-хопа вже певно мають на своїх вінчестерах добірки демок, що давно блукають інтернетом, але повноцінний виданий дебютний альбом ? це, безперечно, Весч. На данну весч умістилося 12 творчих коваликів. Самобутній, негритянський за духом, фанк в гуцульскій інтерпритації.
Під час першого прослуховування виникло дивнувате відчуття ? наче так, шо щось не те. Наче б і Бодік з Рудіком, як то чулося наживо, яскраво і невимушено читають буковинські репи, і ска-секція дує в вухо, і все то таке, як треба. Дійшло ? не має гомону натовпу, підспівування, бухкіту денсів. На платівці тільки Гуцул Каліпсо, шо дають укр-хоп спіціально лічно для тебе. Вопсчем - повноцінна программа гурту, хоч став у домі та на тому ж місці собі і колєгам фест влаштовуй. rock.kiev.ua
Log

Exact Audio Copy V0.99 prebeta 4 from 23. January 2008
EAC extraction logfile from 26. July 2008, 11:25
Гуцул Каліпсо / Рекэт-Гангстэра
Used drive : Optiarc DVD RW AD-7530A Adapter: 1 ID: 1
Read mode : Secure
Utilize accurate stream : Yes
Defeat audio cache : Yes
Make use of C2 pointers : No
Combined read/write offset correction : 0
Overread into Lead-In and Lead-Out : No
Fill up missing offset samples with silence : Yes
Delete leading and trailing silent blocks : No
Null samples used in CRC calculations : Yes
Used interface : Native Win32 interface for Win NT & 2000
Used output format : User Defined Encoder
Selected bitrate : 768 kBit/s
Quality : High
Add ID3 tag : No
Command line compressor : C:\Program Files\Exact Audio Copy\FLAC\FLAC.EXE
Additional command line options : -6 -V -T "ARTIST=%a" -T "TITLE=%t" -T "ALBUM=%g" -T "DATE=%y" -T "TRACKNUMBER=%n" -T "GENRE=%m" -T "COMMENT=%e" %s -o %d
TOC of the extracted CD
Track | Start | Length | Start sector | End sector
---------------------------------------------------------
1 | 0:00.00 | 4:06.63 | 0 | 18512
2 | 4:06.63 | 2:47.45 | 18513 | 31082
3 | 6:54.33 | 4:49.60 | 31083 | 52817
4 | 11:44.18 | 4:47.23 | 52818 | 74365
5 | 16:31.41 | 4:24.00 | 74366 | 94165
6 | 20:55.41 | 5:29.55 | 94166 | 118895
7 | 26:25.21 | 2:34.59 | 118896 | 130504
8 | 29:00.05 | 3:48.56 | 130505 | 147660
9 | 32:48.61 | 3:36.61 | 147661 | 163921
10 | 36:25.47 | 4:29.03 | 163922 | 184099
11 | 40:54.50 | 3:46.00 | 184100 | 201049
12 | 44:40.50 | 3:06.00 | 201050 | 214999
13 | 50:18.50 | 9:12.53 | 226400 | 267852
Range status and errors
Selected range
Filename D:\FLAC\Гуцул Каліпсо - Рекэт-Гангстэра.wav
Peak level 100.0 %
Range quality 99.9 %
Copy CRC D1E608FB
Copy OK
No errors occurred
End of status report


Якщо Ви справді бажаєте підтримати українське - після прослуховування, якщо музика вам сподобалась, придбайте ліцензійний диск. Підтримаймо вітчизняних виконавців!


Срібний реліз (на рейтинг впливає 50% завантаженого)
 Трекер:    Зареєстрований   

Завантажити / скачати українську музику



відео для новачків



 Зареєстрований:   2010-10-12 07:24
 Розмір:   312 MB 
 Оцінка музики:   10/10 (Голосів: 4)
   
jinotot 
Почесний оцифрувальник літератури


З нами з: 28.01.09
Востаннє: 04.12.16
Повідомлень: 3235

2010-10-12 17:26  
iwan wan, а чого лоґ-файл не додав до роздачі, а лише в оформленні?
Lev 
VIP


З нами з: 14.10.09
Востаннє: 05.12.16
Повідомлень: 1819

2010-10-13 21:13  
підправте трекліст, він інший Wink (1)
iwan wan 
VIP


З нами з: 01.10.09
Востаннє: 06.12.16
Повідомлень: 1760

2010-10-13 21:18  
Підправив
jinotot 
Почесний оцифрувальник літератури


З нами з: 28.01.09
Востаннє: 04.12.16
Повідомлень: 3235

2010-10-13 21:41  
Lev, а в тебе диска часом немає?
А то щось я зовсім заплутався із тим трек-лістом... У даному випадку чомусь УМці не дуже довіряю...

iwan wan 
VIP


З нами з: 01.10.09
Востаннє: 06.12.16
Повідомлень: 1760

2010-10-13 22:18  
В куе файлі трекліст такий як і на Умці
Lev 
VIP


З нами з: 14.10.09
Востаннє: 05.12.16
Повідомлень: 1819

2010-10-14 19:05  
jinotot

є в мене диск, а тепер і в релізі все правильно Happy

jinotot 
Почесний оцифрувальник літератури


З нами з: 28.01.09
Востаннє: 04.12.16
Повідомлень: 3235

2010-10-15 20:37  
Lev написано:
є в мене диск,
І шо, правда на ньому, наприклад, останній трек отак зветься:
iwan wan написано:
12.Вологя
?
Ваш часовий пояс: GMT + 2 Години

Нова тема   Відповісти