Завантажити та скачати торренти українською


V.A. - Було так. Традицiйнi лiричнi пiснi Полтавщини (2005) [FLAC] | Authentic Folk

Нові коментарі

Нова тема   Відповісти
Автор Повідомлення
Lev 
VIP


З нами з: 14.10.09
Востаннє: 05.12.16
Повідомлень: 1819

2010-10-11 05:06  
V.A. - Було так. Традицiйнi лiричнi пiснi Полтавщини (2005) [FLAC] | Authentic Folk



Стиль: Authentic Folk
Країна, місто: Україна
Видавець: JRC
Виконавці:
Див. докладно на буклеті (міститься в роздачі)

Над випуском альбому працювали:

Тетяна Сопілка - етномузиколог
Микола Семиног - звукозапис
Олексій Захаренко - мастеринг, дизайн.

Пісні:
    01. Ой той край милий (04:48)
    02. Козак від’їжджає – дівчинонька плаче (02:18)
    03. Що у лузі на дубочку (04:15)
    04. Ой не літай же так, да ти, чорная галка (03:45)
    05. На городі калинонька (02:15)
    06. Ой да ти, калінушка (03:53)
    07. Ой там за морями (03:16)
    08. Ой сів пугач на могилі (02:44)
    09. Да зайшло да сонце (03:52)
    10. Ой не жалко мені да й ні на кого (03:05)
    11. Ой там за Дунаєм (03:06)
    12. Калина-малина над лугом стояла (02:41)
    13. Да ішли чумаченьки з України (03:07)
    14. Спився козак, спився (05:07)
    15. Та орав милий восени (04:44)
    16. Туман по лісочку шумить ще й гуде (04:14)
    17. Калина-малина ні сладка, ні горька (03:02)

Тривалість: 01:00:51
Мова: українська
Аудіо-кодек: FLAC
Бітрейт: 650-769 кб/с, 16 bit / 44100 Hz
Джерело: ріп EAC з оригінального диску (інший трекер)
Додаткова інформація:
log
Exact Audio Copy V0.99 prebeta 4 from 23. January 2008

EAC extraction logfile from 2. October 2009, 17:13

Unknown Artist / Unknown Title

Used drive : YAMAHA CRW-F1E Adapter: 4 ID: 0

Read mode : Secure
Utilize accurate stream : Yes
Defeat audio cache : Yes
Make use of C2 pointers : No

Read offset correction : 733
Overread into Lead-In and Lead-Out : No
Fill up missing offset samples with silence : Yes
Delete leading and trailing silent blocks : No
Null samples used in CRC calculations : Yes
Used interface : Native Win32 interface for Win NT & 2000

Used output format : Internal WAV Routines
Sample format : 44.100 Hz; 16 Bit; Stereo

TOC of the extracted CD

Track | Start | Length | Start sector | End sector
---------------------------------------------------------
1 | 0:00.00 | 4:51.53 | 0 | 21877
2 | 4:51.53 | 2:20.59 | 21878 | 32436
3 | 7:12.37 | 4:17.45 | 32437 | 51756
4 | 11:30.07 | 3:47.31 | 51757 | 68812
5 | 15:17.38 | 2:18.66 | 68813 | 79228
6 | 17:36.29 | 3:55.06 | 79229 | 96859
7 | 21:31.35 | 3:17.70 | 96860 | 111704
8 | 24:49.30 | 2:46.58 | 111705 | 124212
9 | 27:36.13 | 3:53.26 | 124213 | 141713
10 | 31:29.39 | 3:06.22 | 141714 | 155685
11 | 34:35.61 | 3:08.03 | 155686 | 169788
12 | 37:43.64 | 2:43.59 | 169789 | 182072
13 | 40:27.48 | 3:08.62 | 182073 | 196234
14 | 43:36.35 | 5:08.35 | 196235 | 219369
15 | 48:44.70 | 4:46.41 | 219370 | 240860
16 | 53:31.36 | 4:16.22 | 240861 | 260082
17 | 57:47.58 | 3:01.65 | 260083 | 273722

Range status and errors

Selected range

Filename D:\!mTorrent razdachi\Traditional Poltava\Poltava Lyric Songs - Bulo tak.wav

Peak level 97.7 %
Range quality 100.0 %
Test CRC B60D47FD
Copy CRC B60D47FD
Copy OK

No errors occurred

AccurateRip summary

Track 1 not present in database
Track 2 not present in database
Track 3 not present in database
Track 4 not present in database
Track 5 not present in database
Track 6 not present in database
Track 7 not present in database
Track 8 not present in database
Track 9 not present in database
Track 10 not present in database
Track 11 not present in database
Track 12 not present in database
Track 13 not present in database
Track 14 not present in database
Track 15 not present in database
Track 16 not present in database
Track 17 not present in database

None of the tracks are present in the AccurateRip database

End of status report
В скарбниці музичного фольклору України пісенна традиція Полтавщини займає особливе місце. Адже це один з найцікавіших регіонів, що зачаровує вишуканими гармоніями розвиненого вокального багатоголосся. Інтонаційний склад пісенної мелодики утворює особливу лірико-драматичну експресію, визначаючи характерний тужливий колорит полтавського співу. Та і від самих виконавців не раз почуєш : "У нас плачуть, як гарно заспівають".

(...)

Музичний матеріал, представлений на диску, було записано у 1990-х роках під час фольклорних експедицій. Пісні, що їх почує слухач, є не лише документацією музичної традиції регіону кінця ХХ століття, але насамперед живою розповіддю про те, чим жили наші попередники, як було там, у минулому.

Тетяна Сопілка, етномузиколог (інформація з буклету диску)


Увага! Роздача містить високоякісні скани буклету.
Якщо Ви справді бажаєте підтримати українське - після прослуховування, якщо музика вам сподобалась, придбайте ліцензійний диск. Підтримаймо вітчизняних виконавців!


Срібний реліз (на рейтинг впливає 50% завантаженого)
 Трекер:    Зареєстрований   

Завантажити / скачати українську музику



відео для новачків



 Зареєстрований:   2010-10-11 05:06
 Розмір:   323 MB 
 Оцінка музики:   10/10 (Голосів: 7)
   
Skiff 
музика
музика


З нами з: 12.11.07
Востаннє: 06.12.16
Повідомлень: 3051

2010-10-11 09:41  
З обіду ставлю на завантаження.
Lev 
VIP


З нами з: 14.10.09
Востаннє: 05.12.16
Повідомлень: 1819

2010-10-11 10:26  
Skiff написано:
З обіду ставлю на завантаження.


не пошкодуєш Happy
у мене ще автентики української багато, але треба хард побільший насамперед знайти...

Skiff 
музика
музика


З нами з: 12.11.07
Востаннє: 06.12.16
Повідомлень: 3051

2010-10-11 13:09  
Lev написано:
хард побільший насамперед знайти

На днях додав ще один.
Буду потроху помпувати і підтримувати роздачі Happy

Lev 
VIP


З нами з: 14.10.09
Востаннє: 05.12.16
Повідомлень: 1819

2010-10-11 14:12  
Skiff написано:

На днях додав ще один.
Буду потроху помпувати і підтримувати роздачі


о, це чудово Happy

iwan wan 
VIP


З нами з: 01.10.09
Востаннє: 08.12.16
Повідомлень: 1762

2010-10-11 16:07  
А в мп3 буде ?
Lev 
VIP


З нами з: 14.10.09
Востаннє: 05.12.16
Повідомлень: 1819

2010-10-11 20:45  
iwan wan написано:
А в мп3 буде ?


наразі маю дуже завантажений хард, не маю змоги.

Skiff 
музика
музика


З нами з: 12.11.07
Востаннє: 06.12.16
Повідомлень: 3051

2010-10-11 21:04  
Я зможу зробити. Тільки завантажу...
Упереджений 
Частий відвідувач


З нами з: 25.09.09
Востаннє: 26.11.16
Повідомлень: 26

2010-12-21 21:46  
Дуже вибачаюся, але після «ой» треба кому ставити…
Lev 
VIP


З нами з: 14.10.09
Востаннє: 05.12.16
Повідомлень: 1819

2010-12-22 23:54  
Упереджений

подивись на буклет Wink (1)

gosha.samovar 
VIP


З нами з: 08.09.10
Востаннє: 06.12.16
Повідомлень: 400

2011-12-01 14:53  
Данке. Все хотів такий сіді, а доки хотів - їх розкупили.
Ваш часовий пояс: GMT + 2 Години

Нова тема   Відповісти