Завантажити та скачати торренти українською


Аби МС і Таня Радостєва - F5 (2005) [FLAC] | Modern Ethno / Jazz

Нові коментарі

Нова тема   Відповісти
Останній раз роздавалося Myfordownloads (2016-10-09)
Автор Повідомлення
Lev 
VIP


З нами з: 14.10.09
Востаннє: 09.12.16
Повідомлень: 1819

2010-10-09 11:35  
Аби МС і Таня Радостєва - F5 (2005) [FLAC] | Modern Ethno / Jazz



Стиль: Modern Ethno, Jazz, World Music, Trip-Hop
Країна, місто: Україна, Київ
Сайти: Офіційний сайт
Видавець: Hunter music
Виконавці:
Таня Радостєва - вокал, а також
Jack Clift – голосові семпли (7,10), слайд-гітара (10), вокал (10)
Петро Яковченко – труба (7,12)
Сергій Володькин – тромбон (6)
Віталій Іванов – тенор-саксофон (8)
Макс Кочетов – альт-саксофон (1)
Ігор Чернов – сопрано-саксофон (7), тенор-саксофон (5), бас-кларнет (11)
Роман Солук – сопілка (2)
Андрій Макаренко – побічний вокал (9)
Юлія Березовська – голосові семпли (13)
Юрій Акоп - голосові семпли (4)
Хор друзів – гуртові семпли (12)
Batacoto - «n'kosi sikelel'i africa» [enoch mankayi sontonga] (3)
Таня Ша – музика (2,4), клавішні, аранжування струнних
Геннадій Сидоров – тексти (2,4,11), мелодекламація (11), гітари, програмування барабанів
Таня Ша / Геннадій Сидоров – загальна концепція, аранжування
Андрій Макаренко – запис, зведення, мастеринг
Юрій Акоп – запис (6,7,10)

Пісні:
    01. Ранесень (04:28)
    02. Сумна пісня (03:26)
    03. Коси (05:15)
    04. На глибині (04:16)
    05. Маланка (03:43)
    06. Пугар вина (04:27)
    07. Марина (04:56)
    08. Рута-м'ята (03:57)
    09. Гиля-гиля (05:36)
    10. Чорний Дунай (feat. Jack Clift) (04:34)
    11. Калиномалина (04:50)
    12. Сонечко (03:13)
    13. Вербовая дощечка (04:13)

Тривалість: 00:57:07
Мова: українська
Аудіо-кодек: FLAC
Бітрейт: 890 кб/с, 16 bit / 44100 Hz
Джерело: ріп EAC з оригінального диску (інший трекер)
Додаткова інформація:
log
Exact Audio Copy V0.99 prebeta 3 from 28. July 2007

Отчёт EAC об извлечении, выполненном 1. октября 2009, 16:16

ABY MC / F5

Дисковод: HL-DT-STDVDRAM GSA-4167B Adapter: 1 ID: 0

Режим чтения : Достоверность
Использование точного потока : Да
Отключение кэша аудио : Да
Использование указателей C2 : Нет

Коррекция смещения при чтении : 667
Способность читать области Lead-in и Lead-out : Нет
Заполнение пропущенных сэмплов тишиной : Да
Удаление блоков с тишиной в начале и конце : Нет
При вычислениях CRC использовались нулевые сэмплы : Да
Интерфейс : Установленный внешний ASPI-интерфейс

Выходной формат : Пользовательский кодировщик
Выбранный битрейт : 768 kBit/s
Качество : Высокий
Добавление ID3-тэга : Нет
Утилита сжатия : C:\Program Files\Exact Audio Copy\FLAC\FLAC.EXE
Дополнительные параметры : -8 -V %s

TOC извлечённого CD

Трек | Старт | Длительность | Начальный сектор | Конечный сектор
---------------------------------------------------------------------
1 | 0:00.00 | 4:30.38 | 0 | 20287
2 | 4:30.38 | 3:29.67 | 20288 | 36029
3 | 8:00.30 | 5:07.73 | 36030 | 59127
4 | 13:08.28 | 4:17.62 | 59128 | 78464
5 | 17:26.15 | 3:43.27 | 78465 | 95216
6 | 21:09.42 | 4:27.69 | 95217 | 115310
7 | 25:37.36 | 4:57.31 | 115311 | 137616
8 | 30:34.67 | 3:58.62 | 137617 | 155528
9 | 34:33.54 | 5:36.39 | 155529 | 180767
10 | 40:10.18 | 4:36.51 | 180768 | 201518
11 | 44:46.69 | 4:52.43 | 201519 | 223461
12 | 49:39.37 | 3:14.05 | 223462 | 238016
13 | 52:53.42 | 4:14.20 | 238017 | 257086

Характеристики диапазона извлечения и сообщения об ошибках

Выбранный диапазон

Имя файла C:\Documents and Settings\ALEX\Мои документы\ABY MC F5\ABY MC - F5.wav

Пиковый уровень 97.7 %
Качество диапазона 100.0 %
CRC копии B62BBB98
Копирование... OK

Ошибок не произошло

Конец отчёта


Роздача містить скани буклету.


Якщо Ви справді бажаєте підтримати українське - після прослуховування, якщо музика вам сподобалась, придбайте ліцензійний диск. Підтримаймо вітчизняних виконавців!


Срібний реліз (на рейтинг впливає 50% завантаженого)
 Трекер:    Зареєстрований   

Завантажити / скачати українську музику



відео для новачків



 Зареєстрований:   2010-10-09 11:35
 Розмір:   365 MB 
 Оцінка музики:   9.8/10 (Голосів: 5)
   
Lev 
VIP


З нами з: 14.10.09
Востаннє: 09.12.16
Повідомлень: 1819

2010-10-09 11:38  
якщо доречніше в розділ джазу - нічого не матиму проти Happy
bot 
робот


З нами з: 30.09.07
Востаннє: 26.05.05
Повідомлень: 16048

2010-10-09 20:33  
Тему перенесено з Етно, Фольклор, Народна, Бардівська до форуму Джаз, Блюз

Причина перенесення: стиль
ssTAss

Ваш часовий пояс: GMT + 2 Години

Нова тема   Відповісти