Завантажити та скачати торренти українською


Микола Будник - Гей, на Чорному морі... (2001) [FLAC] | Authentic Folk

Нові коментарі

Нова тема   Відповісти
Автор Повідомлення
Lev 
VIP


З нами з: 14.10.09
Востаннє: 09.12.16
Повідомлень: 1819

2010-10-09 11:07  
Микола Будник - Гей, на Чорному морі... (2001) [FLAC] | Authentic Folk



Стиль: Authentic Folk
Країна, місто: Україна, Київ
Сайти: Офіційний сайт
Видавець: Арт-Велес
Виконавці:
Микола Будник - спів, автентична бандура

Фольклористи - Михайло Хай, Вільям Нолл
Науковий редактор - Михайло Хай
Звукорежисери запису - Микола Семиног, Олександр Мельник
Мастеринг - студія "Комора", звукорежисер Костянтин Блажеєв

Пісні:
    01. Про Мазепу і Палія (історична) (06:53)
    02. Про Марусю Богуславку (дума) (07:22)
    03. Про Саву Чалого (історична) (05:37)
    04. Про Супруна (історична) (05:05)
    05. Про Хведора Безродного (дума) (11:58)
    06. Побратався Сокіл (історична) (03:19)
    07. Метелиця (танок) (01:32)
    08. Ой піду я лугом (соціально-побутова) (03:56)
    09. Нема в світі правди (псальма) (02:05)
    10. Про Олексія Поповича (дума) (12:01)

Тривалість: 00:59:46
Мова: українська
Аудіо-кодек: FLAC
Бітрейт: 693 кб/с, 16 bit / 44100 Hz
Джерело: ріп EAC з оригінального диску (інший трекер)
Додаткова інформація:
Легендарний панотець Київського кобзарського цеху Микола Будник увійшов в історію української культури як носій глибинного розуміння автентичності кобзарства. Перейнявши традицію з рук зачинателя сучасного реконструктивного кобзарського руху Г. К. Ткаченка, він власним прикладом, силою свого невичерпного таланту вивів цей рух із андеграунду й підпілля на обшири всенародного визнання. Інструментальні перегри і "мережанки" М.Будника - це своєрідні філософські "післясловія", які ніби довершують недомовлене словом. То з неперевершеною віртуозністю, то з виваженою лапідарно-економною точністю вони наголошують кожен мотив, кожен звук. Окремо треба було б говорити про характер і тембр Будникової мелорецитації й про щирість тихого, немовби "не від світу цього" його голосу.
Інформація із буклету до компакт диску.
Увага! Роздача містить високоякісні скани буклету.
log
Exact Audio Copy V0.99 prebeta 4 from 23. January 2008

EAC extraction logfile from 11. April 2009, 23:43

Микола Будник / Гей, на Чорному морі...

Used drive : _NEC DV-5800D Adapter: 0 ID: 1

Read mode : Secure
Utilize accurate stream : Yes
Defeat audio cache : Yes
Make use of C2 pointers : No

Read offset correction : 6
Overread into Lead-In and Lead-Out : No
Fill up missing offset samples with silence : Yes
Delete leading and trailing silent blocks : No
Null samples used in CRC calculations : Yes
Used interface : Installed external ASPI interface

Used output format : Internal WAV Routines
Sample format : 44.100 Hz; 16 Bit; Stereo

TOC of the extracted CD

Track | Start | Length | Start sector | End sector
---------------------------------------------------------
1 | 0:00.00 | 6:52.55 | 0 | 30954
2 | 6:52.55 | 7:22.20 | 30955 | 64124
3 | 14:15.00 | 5:37.37 | 64125 | 89436
4 | 19:52.37 | 5:04.61 | 89437 | 112297
5 | 24:57.23 | 11:57.41 | 112298 | 166113
6 | 36:54.64 | 3:18.41 | 166114 | 181004
7 | 40:13.30 | 1:31.57 | 181005 | 187886
8 | 41:45.12 | 3:56.21 | 187887 | 205607
9 | 45:41.33 | 2:04.59 | 205608 | 214966
10 | 47:46.17 | 12:00.48 | 214967 | 269014

Range status and errors

Selected range

Filename C:\Documents and Settings\Vit2\Desktop\Микола Будник - Гей, на Чорному морі....wav

Peak level 100.0 %
Range quality 100.0 %
Copy CRC CD3F85BF
Copy OK

No errors occurred

AccurateRip summary

Track 1 not present in database
Track 2 not present in database
Track 3 not present in database
Track 4 not present in database
Track 5 not present in database
Track 6 not present in database
Track 7 not present in database
Track 8 not present in database
Track 9 not present in database
Track 10 not present in database

None of the tracks are present in the AccurateRip database

End of status report
Якщо Ви справді бажаєте підтримати українське - після прослуховування, якщо музика вам сподобалась, придбайте ліцензійний диск. Підтримаймо вітчизняних виконавців!


Срібний реліз (на рейтинг впливає 50% завантаженого)
 Трекер:    Зареєстрований   

Завантажити / скачати українську музику



відео для новачків



 Зареєстрований:   2010-10-09 11:07
 Розмір:   303 MB 
 Оцінка музики:   10/10 (Голосів: 15)
   
Lev 
VIP


З нами з: 14.10.09
Востаннє: 09.12.16
Повідомлень: 1819

2010-10-09 11:09  
прошу перенести до розділу етно-фолку Happy
недогледів і закинув сюди помилково Happy

bot 
робот


З нами з: 30.09.07
Востаннє: 26.05.05
Повідомлень: 16051

2010-10-09 13:25  
Тему перенесено з Рок, Метал, Альтернатива, Панк, СКА до форуму Етно, Фольклор, Народна, Бардівська

Причина перенесення: відповідність
Tarasyk

Tarasyk 
Відео Гуртом - фільмокрай
Відео Гуртом - фільмокрай


З нами з: 26.08.09
Востаннє: 11.12.16
Повідомлень: 5974

2010-10-09 13:32  
Lev, я переніс, але надалі в подібних випадках можете й самі переносити - в самому низу сторінки зліва є кнопочка "Перенести".

Додано через 6 хвилин 25 секунд:

Додав додаткову інформацію з УМКИ і перевірив Happy

Lev 
VIP


З нами з: 14.10.09
Востаннє: 09.12.16
Повідомлень: 1819

2010-10-09 17:57  
Tarasyk

дякую!

Ваш часовий пояс: GMT + 2 Години

Нова тема   Відповісти