Завантажити та скачати торренти українською


Плач Єремії - двері котрі насправді є... (2001) [FLAC] | Art-rock / Fusion

Нові коментарі

Нова тема   Відповісти
Автор Повідомлення
Lev 
VIP


З нами з: 14.10.09
Востаннє: 28.11.16
Повідомлень: 1819

2010-10-09 08:11  
Плач Єремії - двері котрі насправді є... (2001) [FLAC] | Art-rock / Fusion



Стиль: Art-rock / Fusion
Країна, місто: Україна, Львів-Київ
Видавець: Атлантік
Виконавці:
Тарас Чубай - вокал, гітара, альт
Всеволод Дячишин - бас
Віктор Майський - гітара
Мирон Калитовський - ударні

Музика Тараса Чубая

Лірика:

Грицько Чубай (2,4,,6,9,10)
Віктор Неборак (3,5)
Юрій Андрухович (1,7)
Тарас Чубай (8)
Пісні:
    01. Єхидна (03:09)
    02. Відшукування причетного (04:25)
    03. Клітка (03:05)
    04. О хто ти, о хто (03:44)
    05. Жах (06:00)
    06. Плач Єремії (05:10)
    07. Самійло Немирич (04:52)
    08. Пам'ятник (Sorry) (03:32)
    09. Не спиняйте її (02:32)
    10. Сніг (05:38)

Тривалість: 00:42:07
Мова: українська
Аудіо-кодек: FLAC
Бітрейт: 632-942 кб/с, 16 bit / 44100 Hz
Джерело: власний диск > ріп EAC
Додаткова інформація:
Награно у Львові, на студії "Гал-Вокс" 1993 р.
Мастеринг "Гадюкіни Рекордс", 2001 р.
log
Exact Audio Copy V0.99 prebeta 5 from 4. May 2009

EAC extraction logfile from 9. October 2010, 7:19

Плач Єремії / двері котрі насправді є

Used drive : TEAC CD-W540E Adapter: 1 ID: 0

Read mode : Secure
Utilize accurate stream : Yes
Defeat audio cache : Yes
Make use of C2 pointers : No

Read offset correction : 686
Overread into Lead-In and Lead-Out : No
Fill up missing offset samples with silence : Yes
Delete leading and trailing silent blocks : No
Null samples used in CRC calculations : Yes
Used interface : Installed external ASPI interface
Gap handling : Not detected, thus appended to previous track

Used output format : Internal WAV Routines
Sample format : 44.100 Hz; 16 Bit; Stereo

TOC of the extracted CD

Track | Start | Length | Start sector | End sector
---------------------------------------------------------
1 | 0:00.00 | 3:09.01 | 0 | 14175
2 | 3:09.01 | 4:25.27 | 14176 | 34077
3 | 7:34.28 | 3:05.27 | 34078 | 47979
4 | 10:39.55 | 3:44.30 | 47980 | 64809
5 | 14:24.10 | 6:00.18 | 64810 | 91827
6 | 20:24.28 | 5:10.00 | 91828 | 115077
7 | 25:34.28 | 4:52.11 | 115078 | 136988
8 | 30:26.39 | 3:31.58 | 136989 | 152871
9 | 33:58.22 | 2:31.41 | 152872 | 164237
10 | 36:29.63 | 5:37.40 | 164238 | 189552

Track 1

Filename G:\ПЛАЧ ЄРЕМІЇ\Плач Єремії - двері котрі насправді є [2001]\Track01.wav

Peak level 100.0 %
Track quality 100.0 %
Test CRC 9078E5DE
Copy CRC 9078E5DE
Track not present in AccurateRip database
Copy OK

Track 2

Filename G:\ПЛАЧ ЄРЕМІЇ\Плач Єремії - двері котрі насправді є [2001]\Track02.wav

Peak level 100.0 %
Track quality 100.0 %
Test CRC 47BA14F6
Copy CRC 47BA14F6
Track not present in AccurateRip database
Copy OK

Track 3

Filename G:\ПЛАЧ ЄРЕМІЇ\Плач Єремії - двері котрі насправді є [2001]\Track03.wav

Peak level 100.0 %
Track quality 100.0 %
Test CRC B68D367D
Copy CRC B68D367D
Track not present in AccurateRip database
Copy OK

Track 4

Filename G:\ПЛАЧ ЄРЕМІЇ\Плач Єремії - двері котрі насправді є [2001]\Track04.wav

Peak level 100.0 %
Track quality 100.0 %
Test CRC 7452CCC2
Copy CRC 7452CCC2
Track not present in AccurateRip database
Copy OK

Track 5

Filename G:\ПЛАЧ ЄРЕМІЇ\Плач Єремії - двері котрі насправді є [2001]\Track05.wav

Peak level 94.8 %
Track quality 100.0 %
Test CRC A18D7E58
Copy CRC A18D7E58
Track not present in AccurateRip database
Copy OK

Track 6

Filename G:\ПЛАЧ ЄРЕМІЇ\Плач Єремії - двері котрі насправді є [2001]\Track06.wav

Peak level 99.6 %
Track quality 100.0 %
Test CRC EAE81F9A
Copy CRC EAE81F9A
Track not present in AccurateRip database
Copy OK

Track 7

Filename G:\ПЛАЧ ЄРЕМІЇ\Плач Єремії - двері котрі насправді є [2001]\Track07.wav

Peak level 95.1 %
Track quality 100.0 %
Test CRC 943DF08E
Copy CRC 943DF08E
Track not present in AccurateRip database
Copy OK

Track 8

Filename G:\ПЛАЧ ЄРЕМІЇ\Плач Єремії - двері котрі насправді є [2001]\Track08.wav

Peak level 94.7 %
Track quality 100.0 %
Test CRC 2A966F20
Copy CRC 2A966F20
Track not present in AccurateRip database
Copy OK

Track 9

Filename G:\ПЛАЧ ЄРЕМІЇ\Плач Єремії - двері котрі насправді є [2001]\Track09.wav

Peak level 64.9 %
Track quality 100.0 %
Test CRC 3133947E
Copy CRC 3133947E
Track not present in AccurateRip database
Copy OK

Track 10

Filename G:\ПЛАЧ ЄРЕМІЇ\Плач Єремії - двері котрі насправді є [2001]\Track10.wav

Peak level 97.9 %
Track quality 100.0 %
Test CRC 186B3A4C
Copy CRC 186B3A4C
Track not present in AccurateRip database
Copy OK

None of the tracks are present in the AccurateRip database

No errors occurred

End of status report
Якщо Ви справді бажаєте підтримати українське - після прослуховування, якщо музика вам сподобалась, придбайте ліцензійний диск. Підтримаймо вітчизняних виконавців!


Срібний реліз (на рейтинг впливає 50% завантаженого)
 Трекер:    Зареєстрований   

Завантажити / скачати українську музику



відео для новачків



 Зареєстрований:   2010-10-09 08:11
 Розмір:   248 MB 
 Оцінка музики:   10/10 (Голосів: 15)
   
Ваш часовий пояс: GMT + 2 Години

Нова тема   Відповісти