Завантажити та скачати торренти українською


Плач Єремії - Добре (2005) [FLAC] | Art-rock / Fusion

Нові коментарі

Нова тема   Відповісти
Автор Повідомлення
Lev 
VIP


З нами з: 14.10.09
Востаннє: 05.12.16
Повідомлень: 1819

2010-10-09 02:23  
Плач Єремії - Добре (2005) [FLAC] | Art-rock / Fusion



Стиль: Art-rock / Fusion
Країна, місто: Україна, Львів-Київ
Видавець: Атлантік
Виконавці:
Тарас Чубай - вокали, гітара
Юрко Дуда - труба, клавішні
Всеволод Дячишин - бас
Сашко Каменецький - ударні

а також: Віктор Майський - гітара (4,8), Олександр Морокко - гітара (7,9)

лірика:
Грицько Чубай (1,4,5,8,9,10,14,15)
Віктор Неборак (2,3)
Юрій Андрухович (6,7)
Кость Москалець (11,12)
Тарас Чубай (13)

музика: все, крім 11 (Кость Москалець і Тарас Чубай) - Тарас Чубай

аранжування: Тарас Чубай та "Плач Єремії"
Пісні:
    01. "Коли до губ твоїх..." (03:38)
    02. Літаюча голова (04:22)
    03. Королева Де... (05:13)
    04. Відшукування причетного (04:25)
    05. Плач Єремії (05:58)
    06. Єхидна (03:37)
    07. Грифон (04:38)
    08. "О хто ти, о хто..." (03:40)
    09. Коридор (04:05)
    10. Світло і сповідь (ІІІ ч.) (05:35)
    11. Вона (04:35)
    12. Срібне поле (05:44)
    13. Хата моя (06:03)
    14. Жінка (02:31)
    15. "Не спиняйте її..." (02:31)

Тривалість: 01:07:03
Мова: українська
Аудіо-кодек: FLAC
Бітрейт: 749-1030 кб/с, 16 bit / 44100 Hz
Джерело: ріп EAC з оригінального диску (інший трекер)
Додаткова інформація:
log
Exact Audio Copy V0.99 prebeta 4 from 23. January 2008

EAC extraction logfile from 14. February 2009, 17:51

Плач Єремії / Добре

Used drive : TSSTcorpCDDVDW SH-S202N Adapter: 1 ID: 0

Read mode : Secure
Utilize accurate stream : Yes
Defeat audio cache : Yes
Make use of C2 pointers : No

Read offset correction : 6
Overread into Lead-In and Lead-Out : No
Fill up missing offset samples with silence : Yes
Delete leading and trailing silent blocks : No
Null samples used in CRC calculations : Yes
Used interface : Installed external ASPI interface

Used output format : Internal WAV Routines
Sample format : 44.100 Hz; 16 Bit; Stereo

TOC of the extracted CD

Track | Start | Length | Start sector | End sector
---------------------------------------------------------
1 | 0:00.00 | 3:39.51 | 0 | 16475
2 | 3:39.51 | 4:23.69 | 16476 | 36269
3 | 8:03.45 | 5:14.54 | 36270 | 59873
4 | 13:18.24 | 4:27.06 | 59874 | 79904
5 | 17:45.30 | 5:59.65 | 79905 | 106894
6 | 23:45.20 | 3:38.51 | 106895 | 123295
7 | 27:23.71 | 4:40.07 | 123296 | 144302
8 | 32:04.03 | 3:42.02 | 144303 | 160954
9 | 35:46.05 | 4:07.37 | 160955 | 179516
10 | 39:53.42 | 5:37.03 | 179517 | 204794
11 | 45:30.45 | 4:37.02 | 204795 | 225571
12 | 50:07.47 | 5:45.69 | 225572 | 251515
13 | 55:53.41 | 6:05.08 | 251516 | 278898
14 | 61:58.49 | 2:33.26 | 278899 | 290399
15 | 64:32.00 | 2:31.20 | 290400 | 301744

Range status and errors

Selected range

Filename D:\Grab\Плач Єремії - Добре.wav

Peak level 99.0 %
Range quality 100.0 %
Copy CRC 70C14F34
Copy OK

No errors occurred

End of status report
* в роздачі присутній цей ріп, розбитий потреково.

Цей диск є другим виданням збірки (перше - 1998 р.)
Замовити диск в Україні та інших країнах
http://nashformat.com.ua/rock/product-435
Якщо Ви справді бажаєте підтримати українське - після прослуховування, якщо музика вам сподобалась, придбайте ліцензійний диск. Підтримаймо вітчизняних виконавців!


Срібний реліз (на рейтинг впливає 50% завантаженого)
 Трекер:    Зареєстрований   

Завантажити / скачати українську музику



відео для новачків



 Зареєстрований:   2010-10-09 02:23
 Розмір:   418 MB 
 Оцінка музики:   10/10 (Голосів: 17)
   
natashelka 
VIP


З нами з: 23.05.10
Востаннє: 06.12.16
Повідомлень: 441

2013-03-03 11:02  
Після пісні Вона Плач Єремії у наших серцях назавжди
lasmen 
VIP


З нами з: 08.12.11
Востаннє: 11.08.13
Повідомлень: 625

2013-03-03 19:40  
Плач Єремії - книга Старого заповіту. Знаю цю книгу. Вірші, що плачуть.
Знаю цей гурт, знаю їх пісні. Пісні, що плачуть.

30 гривень це невеликі гроші, я купив один диск і ні краплі не шкодую.

gosha.samovar 
VIP


З нами з: 08.09.10
Востаннє: 06.12.16
Повідомлень: 400

2013-03-03 23:04  
Цитата:
30 гривень це невеликі гроші, я купив один диск і ні краплі не шкодую.

Я би теж його купив із задоволенням, але ж де?..

natashelka 
VIP


З нами з: 23.05.10
Востаннє: 06.12.16
Повідомлень: 441

2013-10-07 15:04  
2gosha.samovar
ну наприклад на УМЦІ http://umka.com/

gosha.samovar 
VIP


З нами з: 08.09.10
Востаннє: 06.12.16
Повідомлень: 400

2013-10-07 16:15  
natashelka написано:

2gosha.samovar
ну наприклад на УМЦІ http://umka.com/


Дякую, але, можливо, дасте вже лінк на сам диск? Бо, мабуть, я не вмію шукати.

natashelka 
VIP


З нами з: 23.05.10
Востаннє: 06.12.16
Повідомлень: 441

2016-07-17 23:34  
gosha.samovar
пробачте Гоша, диск не так просто купити, ви були праві. Я в таких випадках просто жертвую гроші на АТО, а диск вантажу на Гуртом.

Ваш часовий пояс: GMT + 2 Години

Нова тема   Відповісти