Завантажити та скачати торренти українською


Богдана Півненко, Ірина Стародуб - Мирослав Скорик. Твори для скрипки та фортепіано (2007) [FLAC] | Classical / Instrumental

Нові коментарі

Нова тема   Відповісти
Автор Повідомлення
Lev 
VIP


З нами з: 14.10.09
Востаннє: 05.12.16
Повідомлень: 1819

2010-10-07 21:55  
Богдана Півненко, Ірина Стародуб - Мирослав Скорик. Твори для скрипки та фортепіано (2007) [FLAC] | Classical / Instrumental



Стиль: Classical, Instrumental
Країна, місто: Україна, Київ
Сайти: Офіційний сайт
Видавець: Атлантік
Виконавці:
Богдана Півненко - скрипка
Ірина Стародуб - фортепіано

М.Дідковський - звукорежисер

на обкладинці картина Івана Марчука "Писанки".
Пісні:
    Соната #2

    01. Слово (05:39)
    02. Арія (05:43)
    03. Бурлеска (03:37)

    Соната #1

    04. Andante. Allegro molto (06:22)
    05. Largo (03:20)
    06. Allegro molto (06:27)

    07. Коломийка (02:49)
    08. Іспанський танець (04:11)
    09. Мелодія (02:59)


Тривалість: 00:41:11
Мова: інструментальні композиції
Аудіо-кодек: FLAC
Бітрейт: 567 кб/с
Джерело: ріп EAC з оригінального диску (інший трекер)
Додаткова інформація:
log
Exact Audio Copy V0.99 prebeta 5 from 4. May 2009

EAC extraction logfile from 24. June 2010, 2:09

Мирослав Скорик / Твори для скрипки та фортепіано

Used drive : HL-DT-STDVDRAM GH22NS40 Adapter: 2 ID: 1

Read mode : Secure
Utilize accurate stream : Yes
Defeat audio cache : Yes
Make use of C2 pointers : No

Read offset correction : 667
Overread into Lead-In and Lead-Out : No
Fill up missing offset samples with silence : Yes
Delete leading and trailing silent blocks : No
Null samples used in CRC calculations : Yes
Used interface : Native Win32 interface for Win NT & 2000

Used output format : User Defined Encoder
Selected bitrate : 128 kBit/s
Quality : High
Add ID3 tag : No
Command line compressor : C:\Program Files\FairStars Audio Converter Pro\AudioConverterPro.exe
Additional command line options : -8 -V -T "ARTIST=%a" -T "TITLE=%t" -T "ALBUM=%g" -T "DATE=%y" -T "TRACKNUMBER=%n" -T "GENRE=%m" -T "COMMENT=EAC FLAC -8" %s

TOC of the extracted CD

Track | Start | Length | Start sector | End sector
---------------------------------------------------------
1 | 0:00.00 | 5:39.71 | 0 | 25495
2 | 5:39.71 | 5:43.42 | 25496 | 51262
3 | 11:23.38 | 3:37.07 | 51263 | 67544
4 | 15:00.45 | 6:22.19 | 67545 | 96213
5 | 21:22.64 | 3:20.05 | 96214 | 111218
6 | 24:42.69 | 6:27.69 | 111219 | 140312
7 | 31:10.63 | 2:49.23 | 140313 | 153010
8 | 34:00.11 | 4:11.49 | 153011 | 171884
9 | 38:11.60 | 2:59.41 | 171885 | 185350

Range status and errors

Selected range

Filename E:\Мои раздачи\Мирослав Скорик - Твори для скрипки та фортепіано\Мирослав Скорик - Твори для скрипки та фортепіано.wav

Peak level 96.3 %
Range quality 99.9 %
Test CRC 6FA3D310
Copy CRC 6FA3D310
Copy OK

No errors occurred

End of status report


Роздача містить буклет релізу.
замовити диск в Україні та інших країнах
http://umka.com.ua/ukr/catalogue/modern-avantgard/myroslav-skoryk-iryna-starodub-bohdana-pivnenko-violin-piano-masterpieces.html
Якщо Ви справді бажаєте підтримати українське - після прослуховування, якщо музика вам сподобалась, придбайте ліцензійний диск. Підтримаймо вітчизняних виконавців!


Срібний реліз (на рейтинг впливає 50% завантаженого)
 Трекер:    Зареєстрований   

Завантажити / скачати українську музику



відео для новачків



 Зареєстрований:   2010-10-07 21:55
 Розмір:   168 MB 
 Оцінка музики:   9.9/10 (Голосів: 17)
   
ssTAss 
Модератор музики


З нами з: 05.07.08
Востаннє: 05.12.16
Повідомлень: 10941

2010-10-07 23:47  
Lev написано:
Мирослав Скорик - Твори для скрипки та фортепіано

хіба Скорик є виконавцем?))
назва має бути
Богдана Півненко, Ірина Стародуб - Мирослав Скорик. Твори для скрипки та фортепіано.

Lev 
VIP


З нами з: 14.10.09
Востаннє: 05.12.16
Повідомлень: 1819

2010-10-08 02:37  
ssTAss написано:
хіба Скорик є виконавцем?))


я й сам знаю, що композитор і як багато важить виконання.

stah 
Новенький


З нами з: 16.03.10
Востаннє: 04.02.11
Повідомлень: 3

2011-02-03 16:38  
Уклінно прошу поставити даний торрент на роздачу
assirs 
Частий відвідувач


З нами з: 26.01.10
Востаннє: 29.11.16
Повідомлень: 32

2012-08-01 23:35  
Lev написано:
Богдана Півненко, Ірина Стародуб - Мирослав Скорик. Твори для скрипки та фортепіано.

Відобразь це в назві файлу

ssTAss 
Модератор музики


З нами з: 05.07.08
Востаннє: 05.12.16
Повідомлень: 10941

2012-08-02 00:06  
assirs написано:
Відобразь це в назві файлу

для чого?

Solo_ 
Новенький


З нами з: 08.04.10
Востаннє: 28.05.16
Повідомлень: 2

2012-08-13 09:01  
я також уклінно прошу поставити даний торрент на роздачу
vinni76 
Новенький


З нами з: 09.10.11
Востаннє: 14.08.16
Повідомлень: 3

2013-01-23 11:48  
ssTAss
Дивна у вас ієрархія.
А де вказано, що муз.форум по виконавцях? Не тре нікому пояснювати, що від виконання залежить те що ми почуємо, але виконавців можуть бути тисячі.
Але Скорик -- один, Вагнер -- один, Моцарт -- один.
Тому правильно і логічно вказати спершу ім'я автора, тоді назву твору і хто виконує.

Lev 
VIP


З нами з: 14.10.09
Востаннє: 05.12.16
Повідомлень: 1819

2014-08-12 21:48  
stah написано:
Уклінно прошу поставити даний торрент на роздачу


Роздається стабільно, але якщо є проблеми з роздаванням, то завжди краще писати мені в приват - повідомлення в темах зазвичай не моніторю.

Ваш часовий пояс: GMT + 2 Години

Нова тема   Відповісти