Завантажити та скачати торренти українською


Плач Єремії - Світло і сповідь. Vol.1 (2005) [FLAC] | Art-rock / Fusion

Нові коментарі

Нова тема   Відповісти
Автор Повідомлення
Lev 
VIP


З нами з: 14.10.09
Востаннє: 09.12.16
Повідомлень: 1819

2010-10-07 16:50  
Плач Єремії - Світло і сповідь. Vol.1 (2005) [FLAC] | Art-rock / Fusion



Стиль: Art-rock, Fusion
Країна, місто: Україна, Львів-Київ
Видавець: Атлантік
Виконавці:
Тарас Чубай - вокал, гітари, альт, клавішні
Юрій Дуда - клавішні, труба
Всеволод Дячишин - бас-гітара
Андрій Надольский - ударні

Ярина Якуб'як - бек-вокал (3)

Камерний оркестр "Віртуози Львова"
(концертмейстер Володимир Дуда, мистецький керівник Сергій Бурко)

Аранжування струнних - Юрій Дуда
Аранжування - Тарас Чубай

вся музика - Тарас Чубай
тексти - Грицько Чубай,
окрім 1 - Іван Малкович.

Продюсування : Тарас Чубай

Пісні:
    01. Із янголом на плечі (04:24)
    02. І ч. - ІІ ч. - Дерев'яна зозуля - Я запитаю тебе в темряві... (02:08)
    03. ІІІ ч. - Ти не маєш довкола свічадонька жодного... (05:11)
    04. IV ч. - VIII ч. - Пречисті голоси... - Насниться тобі... (07:56)
    05. Відшукування причетного (04:24)
    06. День відходить... (03:56)
    07. Літо (03:54)
    08. Я так довго мовчав... (05:05)
    09. Коли до губ твоїх... (бонус-трек, live 2005) (03:41)
    10. Лента (повстанська) (бонус-трек, live 2005) (06:31)

    * бонус-треки для перевидання альбому 2005 року взято із запису концерту, присвяченого 15-річчю групи "Плач Єремії" у Львівській Опері 2 січня 2005 року.


відео-бонус :

01. Із янголом на плечі (live) (04:20)
технічні характеристики


якість: mpeg
кодек: MPEG-1 Video
розмір кадру: 640x480
бітрейт: 2000 кб/с

Аудіо:

мова: українська
кодек: MPEG-1 Audio layer 2
бітрейт: 224 кб/с







Тривалість: 00:51:30
Мова: українська
Аудіо-кодек: FLAC
Бітрейт: 588-851 кб/с, 16 bit / 44100 Hz
Джерело: власний диск > ріп EAC
Додаткова інформація:
log
Exact Audio Copy V0.99 prebeta 5 from 4. May 2009

EAC extraction logfile from 7. October 2010, 15:10

Плач Єремії / Світло і сповідь

Used drive : TEAC CD-W540E Adapter: 1 ID: 0

Read mode : Secure
Utilize accurate stream : Yes
Defeat audio cache : Yes
Make use of C2 pointers : No

Read offset correction : 686
Overread into Lead-In and Lead-Out : No
Fill up missing offset samples with silence : Yes
Delete leading and trailing silent blocks : No
Null samples used in CRC calculations : Yes
Used interface : Installed external ASPI interface
Gap handling : Not detected, thus appended to previous track

Used output format : User Defined Encoder
Selected bitrate : 1024 kBit/s
Quality : High
Add ID3 tag : No
Command line compressor : C:\Program Files\Exact Audio Copy\Flac\flac.exe
Additional command line options : -8 –V -T "ARTIST=%a" –T "TITLE=%t" -T "ALBUM =%g" -T "DATE =%y" –T "TRACKNUMBER=%n" -T "GENRE =%m" -T" COMMENT= EAC FLAC -8 "%s

TOC of the extracted CD

Track | Start | Length | Start sector | End sector
---------------------------------------------------------
1 | 0:00.00 | 4:23.49 | 0 | 19773
2 | 4:23.49 | 2:08.25 | 19774 | 29398
3 | 6:31.74 | 5:10.72 | 29399 | 52720
4 | 11:42.71 | 7:56.00 | 52721 | 88420
5 | 19:38.71 | 4:23.45 | 88421 | 108190
6 | 24:02.41 | 3:55.42 | 108191 | 125857
7 | 27:58.08 | 3:53.63 | 125858 | 143395
8 | 31:51.71 | 5:04.38 | 143396 | 166233
9 | 36:56.34 | 3:41.33 | 166234 | 182841
10 | 40:37.67 | 6:31.02 | 182842 | 212168
11 | 49:40.69 | 8:00.36 | 223569 | 259604

Track 1

Filename G:\ПЛАЧ ЄРЕМІЇ\Плач Єремії - Світло і сповідь [2005] FLAC\Track01.wav

Peak level 97.0 %
Track quality 99.9 %
Test CRC 1A253A00
Copy CRC 1A253A00
Track not present in AccurateRip database
Copy OK

Track 2

Filename G:\ПЛАЧ ЄРЕМІЇ\Плач Єремії - Світло і сповідь [2005] FLAC\Track02.wav

Peak level 98.1 %
Track quality 100.0 %
Test CRC 00FCF907
Copy CRC 00FCF907
Track not present in AccurateRip database
Copy OK

Track 3

Filename G:\ПЛАЧ ЄРЕМІЇ\Плач Єремії - Світло і сповідь [2005] FLAC\Track03.wav

Peak level 100.0 %
Track quality 100.0 %
Test CRC ED1A18BD
Copy CRC ED1A18BD
Track not present in AccurateRip database
Copy OK

Track 4

Filename G:\ПЛАЧ ЄРЕМІЇ\Плач Єремії - Світло і сповідь [2005] FLAC\Track04.wav

Peak level 96.9 %
Track quality 100.0 %
Test CRC 1DC10B61
Copy CRC 1DC10B61
Track not present in AccurateRip database
Copy OK

Track 5

Filename G:\ПЛАЧ ЄРЕМІЇ\Плач Єремії - Світло і сповідь [2005] FLAC\Track05.wav

Peak level 93.5 %
Track quality 100.0 %
Test CRC 79006DB5
Copy CRC 79006DB5
Track not present in AccurateRip database
Copy OK

Track 6

Filename G:\ПЛАЧ ЄРЕМІЇ\Плач Єремії - Світло і сповідь [2005] FLAC\Track06.wav

Peak level 97.7 %
Track quality 100.0 %
Test CRC F7C2A3EB
Copy CRC F7C2A3EB
Track not present in AccurateRip database
Copy OK

Track 7

Filename G:\ПЛАЧ ЄРЕМІЇ\Плач Єремії - Світло і сповідь [2005] FLAC\Track07.wav

Peak level 100.0 %
Track quality 100.0 %
Test CRC 777A8F62
Copy CRC 777A8F62
Track not present in AccurateRip database
Copy OK

Track 8

Filename G:\ПЛАЧ ЄРЕМІЇ\Плач Єремії - Світло і сповідь [2005] FLAC\Track08.wav

Peak level 100.0 %
Track quality 99.9 %
Test CRC 3AE99A84
Copy CRC 3AE99A84
Track not present in AccurateRip database
Copy OK

Track 9

Filename G:\ПЛАЧ ЄРЕМІЇ\Плач Єремії - Світло і сповідь [2005] FLAC\Track09.wav

Peak level 97.4 %
Track quality 100.0 %
Test CRC 36D3D5E1
Copy CRC 36D3D5E1
Track not present in AccurateRip database
Copy OK

Track 10

Filename G:\ПЛАЧ ЄРЕМІЇ\Плач Єремії - Світло і сповідь [2005] FLAC\Track10.wav

Peak level 100.0 %
Track quality 100.0 %
Test CRC B2D6C511
Copy CRC B2D6C511
Track not present in AccurateRip database
Copy OK

None of the tracks are present in the AccurateRip database

No errors occurred

End of status report


Роздача містить повний комплект сканів буклету видання 2003 року, який відрізняється від перевидання лише треклістом на звороті.
Якщо Ви справді бажаєте підтримати українське - після прослуховування, якщо музика вам сподобалась, придбайте ліцензійний диск. Підтримаймо вітчизняних виконавців!


Срібний реліз (на рейтинг впливає 50% завантаженого)
 Трекер:    Зареєстрований   

Завантажити / скачати українську музику



відео для новачків



 Зареєстрований:   2010-10-07 16:50
 Розмір:   375 MB 
 Оцінка музики:   9.6/10 (Голосів: 23)
   
Lev 
VIP


З нами з: 14.10.09
Востаннє: 09.12.16
Повідомлень: 1819

2010-10-07 17:06  
диск можна замовити тут
http://www.umka.com.ua/ukr/catalogue/lyrical-underground/taras-chubay-svitlo-i-spovid-light-and-confession.html

Додано через 1 хвилину 48 секунд:

або тут (значно дешевше)
http://www.nashformat.com.ua/rock/product-559

willrain 
Частий відвідувач


З нами з: 24.01.10
Востаннє: 23.03.16
Повідомлень: 25

2010-10-07 23:35  
Недочеты релиза:
1 - диск все же относится к дискографии группы "Плач Єремії", поэтому запихивать в один тег названия исполнителя группу и ее лидера - неправильно.
2 - нет Seektable

ssTAss 
Модератор музики


З нами з: 05.07.08
Востаннє: 10.12.16
Повідомлень: 10950

2010-10-08 00:05  
willrain написано:
1 - диск все же относится к дискографии группы "Плач Єремії", поэтому запихивать в один тег названия исполнителя группу и ее лидера - неправильно.

маєте рацію
нажаль, в правилах ніде немає про правильне прописання тегів
це ми вже самі (просимо, вимагаємо)
willrain написано:
2 - нет Seektable

і "правильність" зняття ріпу з диску теж не вимагається
willrain написано:
Я на всякий случай для истории сохранил - http://...

а оце дарма... поговорили на емоціях і досить
Lev написано:

або тут (значно дешевше)

http://www.nashformat.com.ua/rock/product-559

купляв цей диск ще в далекому 2005)))
щось за дуже смішні гроші.. вже-м навіть не пам'ятаю чи 10 чи 12 грн
отаке

Lev 
VIP


З нами з: 14.10.09
Востаннє: 09.12.16
Повідомлень: 1819

2010-10-08 02:04  
willrain написано:
1 - диск все же относится к дискографии группы "Плач Єремії", поэтому запихивать в один тег названия исполнителя группу и ее лидера - неправильно.


якби ти бачив оригінальний диск, ти б таких нісенітниць не писав.

Додано через 2 хвилини 23 секунди:

зрештою, маєш вже скани - там видно.

willrain 
Частий відвідувач


З нами з: 24.01.10
Востаннє: 23.03.16
Повідомлень: 25

2010-10-08 11:03  
Цитата:
якби ти бачив оригінальний диск, ти б таких нісенітниць не писав.

Додано через 2 хвилини 23 секунди:

зрештою, маєш вже скани - там видно.

...Если бы ты потрудился сходить на сайт группы / Википедию / куда-то еще, то увидел бы, что этот диск так же само относится к творчеству группы "Плач Єремії".
Цитата:

Сольні роботи та сумісні проекти

* 1992 Останній Грім
* 2002 Наш Івасюк
* 2003 Нашi партизани (Тарас Чубай & Скрябін)
* 2003 Наше Різдво (Тарас Чубай & Скрябін)

Разом з Плачем Єремії

* 1993 Двері, котрі насправді є
* 1995 Най буде все як є…
* 1997 Хата моя
* 1998 Добре
* 2003 Світло і сповідь ч.1



В итоге в библиотеке в плеере создается новый исполнитель, на серверах статистики вроде libre.fm / last.fm получается зоопарк вроде:
http://www.lastfm.ru/music/лач%20Єремії
http://www.lastfm.ru/music/арас+Чубай
http://alturl.com/hcjda
и тому подобные. Зато да, зато не напрягался и просто переписал то, что увидел на обложке.

Цитата:
і "правильність" зняття ріпу з диску теж не вимагається

Жаль, ведь 10 минут потраченного времени у релизера избавит каждого скачавшего тратить эти самые 10 минут на доводку альбома (если, конечно, не хочется устраивать свалку в аудиоколлекции)

Lev 
VIP


З нами з: 14.10.09
Востаннє: 09.12.16
Повідомлень: 1819

2010-10-08 21:02  
...по сабжу - лише група визначає, як їй маркувати свої релізи, і обкладинка в цьому разі першоджерело, а вікіпедія - фігня собача.
jinotot 
Почесний оцифрувальник літератури


З нами з: 28.01.09
Востаннє: 04.12.16
Повідомлень: 3235

2010-10-08 23:12  
На мою думку, диск не варто зараховувати до дискографії ПЄ. Це Чубай та... та ПЄ, та Ярка Якуб’як, та Віртуози Львова, та Чубай... Грицько Чубай.
Втім, справді, не писати ж їх усіх у теґи. Тож, як на мене, достатньо було б і просто запису Тарас Чубай у полі "виконавець".

willrain 
Частий відвідувач


З нами з: 24.01.10
Востаннє: 23.03.16
Повідомлень: 25

2010-11-15 19:10  
Наконец-то нашел время немного поразбирать завалы музыки на винте и сравнить этот релиз с тем, что у меня уже было, чтобы определить, что оставлять.

Что забавно, что после всех воплей релиз-то оказался левачком - http://rain.linuxoid.in/fileupload/misc/pe_sns/spectrums/

А вот как оно должно было быть на самом деле: http://rain.linuxoid.in/fileupload/misc/pe_sns/spectrums_norm/

----

Не удержался, чтобы не пнуть лишний раз ТС'a:

Цитата:
лише група визначає, як їй маркувати свої релізи, і обкладинка в цьому разі першоджерело,


Есть у меня вот такой вот диск - http://rain.linuxoid.in/fileupload/misc/mansound_2007.jpg - как видишь, указано "Оксана Бiлозiр та ManSound". Да вот проблема, если следовать твоей логике и читать только то, что написано на обложке - группы / исполнителя / коллектива-то такого не существует. Да и в дискографии Оксаны Бiлозiр его тоже нет, а относится он целиком и полностью к творчеству группы ManSound.

jinotot 
Почесний оцифрувальник літератури


З нами з: 28.01.09
Востаннє: 04.12.16
Повідомлень: 3235

2010-11-15 21:32  
Я шось не вкурив — я рано вікрив тему?
Гаразд, виправлю свою помилку.
До нових зустрічей!

Додано через 1 годину 16 хвилин 31 секунду:

Щодо якості. Стягнув на вибір три треки, перевірив спектри — на жаль, виглядають дійсно доволі непривабливо...
Lev, справді ріп із власного диска? Було у нас пару прецедентів, коли ріпали ліцензійні диски і виявляли там такий сюрприз. Як не прикро, але буває... Тільки от цікаво — з чиєї вини? Невже Атлантік так напартачив?

До релізера прохання із відповідями звертатися в приват, а до колег — відписати в цій темі, що робити з релізом? Додати до оформлення попередження про якість і лишити, як є? Попередження про якість і до архіву? Переробити? Інші варіанти?

ssTAss 
Модератор музики


З нами з: 05.07.08
Востаннє: 10.12.16
Повідомлень: 10950

2010-11-16 01:10  
jinotot написано:
Щодо якості. Стягнув на вибір три треки, перевірив спектри — на жаль, виглядають дійсно доволі непривабливо...

є в мене диск
купляв років 5 тому
подивлюсь на якість (прожену тау аналізером) і відпишу

Додано через 18 хвилин 5 секунд:

юй)
в мене не перевидання, а альбом 2003 року
без бонусів і відео
willrain написано:
Что забавно, что после всех воплей релиз-то оказался левачком - http://rain.linuxoid.in/fileupload/misc/pe_sns/spectrums/

і справді апконверт
ось наприклад спектри 1 треку альбому 2003 року
тиць
і так всі
ось звіт
тиць
так що не Атлантик винен
тому цей реліз взагалі потрібно видалити (поки в архів і написати попередження про апконверт з 128)

Додано через 1 годину 12 хвилин 26 секунд:

написав що апконверт
хоча маю припущення, що може Атлантик таку свиню підсунув?
ну як мали ще два бонуси і відео запхати на диск, га?
Lev написано:
Джерело: власний диск

Lev , у Вас є диск? купували не на базарі чи тимчасових ятках?

може ще хтось має оте перевидання? подивіться спектри, будь-ласка

Bor 
Новенький


З нами з: 23.04.09
Востаннє: 07.12.16
Повідомлень: 8

2011-12-07 21:45  
ssTAss
так виложи, будь-ласка, нормальну версію

Lev 
VIP


З нами з: 14.10.09
Востаннє: 09.12.16
Повідомлень: 1819

2011-12-09 02:17  
ssTAss написано:
Lev , у Вас є диск? купували не на базарі чи тимчасових ятках?


фірмовий диск від Атлантіку.
інша річ, шо наші лейбли можуть халтурити.

ssTAss 
Модератор музики


З нами з: 05.07.08
Востаннє: 10.12.16
Повідомлень: 10950

2011-12-09 21:25  
Lev написано:
фірмовий диск від Атлантіку.

ну не знаю
на сайті атлантику цей диск йде без відео і бонусів (і нічого про інший нема)
http://www.atlantic-records.com.ua/cat.php?view=item&ID=12&refer=rub
є два варіанти, або це піратський диск, або так вирішив сам атлантик підзаробити і видати ніби новий альбом з відео і бонусами
схиляюсь до другого варіанту
навіть на умці він є
http://www.umka.com.ua/ukr/catalogue/lyrical-underground/taras-chubay-svitlo-i-spovid-light-and-confession.html
але якість все одно від того не покращиться.. емпетри і все

викладу (як дойдуть руки) нормальний альбом

Lev 
VIP


З нами з: 14.10.09
Востаннє: 09.12.16
Повідомлень: 1819

2011-12-10 14:50  
ssTAss написано:
на сайті атлантику цей диск йде без відео і бонусів (і нічого про інший нема)


Ви довіряєте сайтам укр.лейблів? Wide grin

ssTAss написано:
є два варіанти, або це піратський диск, або так вирішив сам атлантик підзаробити і видати ніби новий альбом з відео і бонусами


перевидання - річ вигідна навіть зараз, якщо правильно розкрутити.

ssTAss написано:
викладу (як дойдуть руки) нормальний альбом


хай щастить

ssTAss 
Модератор музики


З нами з: 05.07.08
Востаннє: 10.12.16
Повідомлень: 10950

2011-12-10 17:16  
Lev написано:
Ви довіряєте сайтам укр.лейблів?

та не зовсім))
але в мене є диск 2003 року і там все нормально
Lev написано:
хай щастить

не зовсім зрозумів до чого Ви це сказали (чи з сарказмом, чи як)
щось я став якийсь недовірливий і дуже прискіпливий... зима чи старість? Rolleyes (2)

Lev 
VIP


З нами з: 14.10.09
Востаннє: 09.12.16
Повідомлень: 1819

2011-12-12 02:11  
ssTAss написано:
але в мене є диск 2003 року і там все нормально


виходить, його вихід краще підготували Happy

ssTAss написано:

не зовсім зрозумів до чого Ви це сказали (чи з сарказмом, чи як)
щось я став якийсь недовірливий і дуже прискіпливий... зима чи старість? 


нє, я щиро Happy

gosha.samovar 
VIP


З нами з: 08.09.10
Востаннє: 09.12.16
Повідомлень: 400

2012-01-28 13:19  
Також дістав з коробки свій диск. Атлантік 2005 рік. Бонус треки, відео, буклет, голограма - усе є. Купував у книгарні, там і інші українські сіді були. Перевірив спектр - теж зрізані частоти.
Тиць
Ще маю диск "Двері котрі насправді є..." - Атлантік 2001 р. (магазин "Наш формат"). При прослуховуванні таке враження, ніби пристрій, що читає, просто скаче, пропускаючи фрази, як тонарм при програванні побитого вінілу. Хотів зробити ріп - ЕАС видає помилки.
Ще тиць
Exact Audio Copy V1.0 beta 3 from 29. August 2011

Отчёт EAC об извлечении, выполненном 28. января 2012, 14:36

Плач Єремії / Двері котрі насправді є...

Дисковод: PHILIPS SPD2519T Adapter: 2 ID: 0

Режим чтения : Достоверность
Использование точного потока : Да
Отключение кэша аудио : Да
Использование указателей C2 : Нет

Коррекция смещения при чтении : 6
Способность читать области Lead-in и Lead-out : Нет
Заполнение пропущенных сэмплов тишиной : Да
Удаление блоков с тишиной в начале и конце : Нет
При вычислениях CRC использовались нулевые сэмплы : Да
Интерфейс : Встроенный Win32-интерфейс для Win NT/2000

Выходной формат : Пользовательский кодировщик
Выбранный битрейт : 1024 kBit/s
Качество : Высокий
Добавление ID3-тега : Нет
Утилита сжатия : D:\soft_2\EAC\Exact Audio Copy\Flac\flac.exe
Дополнительные параметры : -V -8 -T "Date=%year%" -T "Genre=%genre%" %source%

TOC извлечённого CD

Трек | Старт | Длительность | Начальный сектор | Конечный сектор
---------------------------------------------------------------------
1 | 0:00.00 | 3:09.01 | 0 | 14175
2 | 3:09.01 | 4:25.27 | 14176 | 34077
3 | 7:34.28 | 3:05.27 | 34078 | 47979
4 | 10:39.55 | 3:44.30 | 47980 | 64809
5 | 14:24.10 | 6:00.18 | 64810 | 91827
6 | 20:24.28 | 5:10.00 | 91828 | 115077
7 | 25:34.28 | 4:52.11 | 115078 | 136988
8 | 30:26.39 | 3:31.58 | 136989 | 152871
9 | 33:58.22 | 2:31.41 | 152872 | 164237
10 | 36:29.63 | 5:37.40 | 164238 | 189552

Характеристики диапазона извлечения и сообщения об ошибках

Выбранный диапазон

Имя файла E:\Музіка!\from EAC\Плач Єремії - Двері котрі насправді є....wav

Подозрительная позиция 0:13:34
Подозрительная позиция 0:14:14
Подозрительная позиция 0:15:24
Подозрительная позиция 0:15:42
Подозрительная позиция 0:15:44
Подозрительная позиция 0:15:50
Подозрительная позиция 0:16:16
Подозрительная позиция 0:16:23
Подозрительная позиция 0:16:37
Подозрительная позиция 0:16:46 - 0:16:47
Подозрительная позиция 0:16:59
Подозрительная позиция 0:17:01
Подозрительная позиция 0:17:03 - 0:17:04
Подозрительная позиция 0:17:08
Подозрительная позиция 0:17:10
Подозрительная позиция 0:17:12
Подозрительная позиция 0:17:21
Подозрительная позиция 0:17:31
Подозрительная позиция 0:17:38 - 0:17:39
Подозрительная позиция 0:17:41
Подозрительная позиция 0:17:46
Подозрительная позиция 0:17:57
Подозрительная позиция 0:18:11 - 0:18:12
Подозрительная позиция 0:18:27
Подозрительная позиция 0:18:36
Подозрительная позиция 0:18:47
Подозрительная позиция 0:18:52
Подозрительная позиция 0:18:59
Подозрительная позиция 0:19:05 - 0:19:06
Подозрительная позиция 0:19:15
Подозрительная позиция 0:19:21 - 0:19:23
Подозрительная позиция 0:19:36
Подозрительная позиция 0:19:57
Подозрительная позиция 0:19:59
Подозрительная позиция 0:20:05
Подозрительная позиция 0:20:19
Подозрительная позиция 0:20:26
Подозрительная позиция 0:20:29
Подозрительная позиция 0:20:34
Подозрительная позиция 0:20:50
Подозрительная позиция 0:23:16
Подозрительная позиция 0:24:37
Подозрительная позиция 0:28:30

Пиковый уровень 100.0 %
Скорость извлечения 0.8 X
Качество диапазона 98.5 %
CRC теста BD0EE205
CRC копии 301653DA
Копирование завершено

Были ошибки

Конец отчёта

==== Контрольная сумма отчёта 408BC0C9C2DD07B7E4D755120E941701C1F5CC0E8DC07BA84172BEB293E74FB9 ====
Цікаво те, що раніше у мене була фірмова касета "Двері котрі насправді є...", так на ній також є ті "скачки". На диску "Наш Івасюк" (придбав у книгарні) - також є один чи два такі скачки, але я його ще не ріпав. Цікаво знати, як у інших людей поводять себе вказані диски.
Фізичних пошкоджень мої диски не мають. І що цікаво - лежать у коробці три сіді Плач Єремії - і кожен з них по-своєму калічний. Вони що, НЕ УВАЖАЮТЬ нас? Vampire-like teeth
Дописую пізніше: "Наш Івасюк" - нормальний. Ріп вийшов без проблем.

Kirin 
VIP


З нами з: 28.07.08
Востаннє: 09.12.16
Повідомлень: 257

2012-01-28 23:46  
У мене цей диск входить в склад дискографії Плач Єремії Happy і думаю, що так правильно! Адже:

Цитата:
Тарас Чубай - вокал, гітари, альт, клавішні
Юрій Дуда - клавішні, труба
Всеволод Дячишин - бас-гітара
Андрій Надольский - ударні


Це і є Плач Єремії Wink (1)

Lev 
VIP


З нами з: 14.10.09
Востаннє: 09.12.16
Повідомлень: 1819

2012-01-29 06:45  
gosha.samovar написано:
Цікаво знати, як у інших людей поводять себе вказані диски.


В мене жодних скачків не відбувається. Може, просто раніше придбав, коли ще не збували залишки тиражу. Або просто пощастило.

gosha.samovar 
VIP


З нами з: 08.09.10
Востаннє: 09.12.16
Повідомлень: 400

2012-01-29 17:26  
Цитата:
В мене жодних скачків не відбувається.

Якщо мова про цей диск: http://toloka.to/t17304, то я його вчора скачав і таки виявив на ньому усі ті скачки, що є на моєму примірнику один в один. Ось перелік скачків (пісня і час, коли відбувається скачок):
Тиць

    02. Відшукування причетного...01:26
    05. Жах...................................01:06, 01:17, 02:05, 03:09, 03:19
    06. Плач Єремії........................03:51
    08. Пам`ятник..........................02:42
Переслухайте уважно, бажано, в навушниках - і почуєте, що вони там є.
Ще трохи в сторону, але по темі. Нещодавно попалось інтерв`ю з шановним Тарасом Чубаєм: http://www.report.if.ua/poglyad/poglyad/taras-chubay-treba-povodytys-yak-peremozhtsi. Ось цитата:
Цитата:
— Готуєте новий альбом? Здається, такої події не було вісім років. Чи не задовга пауза?

— Ще 2005-го було перевидання альбому «Світло і сповідь» (щаслівим обладатєлєм коєво і являюсь - прим. - gosha.samovar), але останній оригінальний диск вийшов 2003 року. А щодо паузи, то відповім так: стараєшся дістати якісь кошти, аби видати альбом, а віддачі практично жодної. Все з’являється в інтернеті, на піратських дисках. Якось у Дніпропетровську ми побачили чудовий такий диск під назвою «Зірки української естради», де на mp3 представлені всі наші альбоми, ще й фотографії, стягнуті з інтернету. Причому з легальною наліпкою, з голограмою. Тож немає жодного шансу повернути гроші, вкладені в альбом.

Хочеться риторично звернутись до пана Тараса: Пане Тарасе, а на біса нам купувати Ваші НЕПІРАТСЬКІ диски, якщо вони мають усі прєлєсті піратських: скачки, різані частоти, орфографічні помилки на обкладинках:
Шо ето?
???
Що є гірше: поширювати у Інтернеті альбоми, яких у продажу вже нема, чи видавати диски сумнівної якості? Так, у нас не боряться з піратами, але у нас і споживачі не боряться за власні права, а то б довелося панові Тарасові відкашляти немало грошей за такі діла. Стидно, пане Тарасе, стидно!

ssTAss 
Модератор музики


З нами з: 05.07.08
Востаннє: 10.12.16
Повідомлень: 10950

2012-01-29 17:43  
gosha.samovar написано:
Ось перелік скачків (пісня і час, коли відбувається скачок):

послухав - і справді є(
списую все-таки на ремастеринг.. цей ж альбом був записаний в 1993 році, а виданий на сіді в 2001
gosha.samovar написано:
різані частоти

вже про це казав
лейбл постарався
ssTAss написано:
ну як мали ще два бонуси і відео запхати на диск, га?

gosha.samovar 
VIP


З нами з: 08.09.10
Востаннє: 09.12.16
Повідомлень: 400

2012-01-29 17:58  
Цитата:
лейбл постарався

Я от думаю, чому цей лейбл так старається саме для пана Тараса? У мене є й інші диски Атлантіку, але такоі лажі немає на жодному! Гадаю, виконавець має право (і повинен) вимагати від лейбла якісного видання своїх дисків, навіть у судовому порядку. А якщо тираж вийшов бракованим, - не пускати у продаж.

ssTAss 
Модератор музики


З нами з: 05.07.08
Востаннє: 10.12.16
Повідомлень: 10950

2012-01-29 18:20  
gosha.samovar написано:
тираж вийшов бракованим

тираж не вийшов бракованим
хотіли ніби видати оновлений альбом (з бонусом і відео), але можливості втулити його туди не було, от і врізали частоти.. а хто винен - Чубай чи атлантик, то вже хай між собою виясняють
хоча, поважаючий себе лейбл до такого не мав би опускатись
як і поважаючий себе гурт
а плач щодо торрентів і інтернету, то відмазки
послухайте Стінга, Блек Сабат, Рамштайн (та будь-кого).. абсолютно не проти щоб їхні диски вантажили (це ж додаткова супер реклама, ще й безкоштовна), а заробляють в основному на концертах (хоча і диски не мало продаються)

gosha.samovar 
VIP


З нами з: 08.09.10
Востаннє: 09.12.16
Повідомлень: 400

2012-01-29 21:50  
Цитата:
хотіли ніби видати оновлений альбом (з бонусом і відео), але можливості втулити його туди не було, от і врізали частоти

Я так не думаю. Справа не в бонусах. Спробую довести на прикладах.
У "Світло і сповідь" вся аудіо-частина має час звучання 00:47:08, відео-бонус важить 71 549 кб. Спектри усі бачили.
Я у себе знайшов такий диск:
тиць
Аудіо-частина має час звучання 00.43.56, плюс ТРИ відео-бонуси, які важать 31 565, 92 747 та 91 144 кб. Покажу спектр:
тиць
Ще знайшов таке (із любімого Wide grin ):
тиць
Тут взагалі аудіо - 01.00.38, плюс 15-хвилинний фільм вагою 148 670 кб. Спектр:
тиць
Висновок: діло не у кількості бонусів, а у тому, з якого місця руки ростуть.

Lev 
VIP


З нами з: 14.10.09
Востаннє: 09.12.16
Повідомлень: 1819

2012-01-30 04:36  
gosha.samovar написано:
Переслухайте уважно, бажано, в навушниках - і почуєте, що вони там є.


Займуся на дозвіллі Happy
В мене ще й на касетах вони є Happy

Додано через 6 хвилин 51 секунду:

ssTAss написано:
а плач щодо торрентів і інтернету, то відмазки


однозначно.

Ваш часовий пояс: GMT + 2 Години

Нова тема   Відповісти