Завантажити та скачати торренти українською


Krobak - Vorkoma (EP) (2008) [FLAC] | Post-Rock / Instrumental / Avantgarde

Нові коментарі

Нова тема   Відповісти
Автор Повідомлення
Lev 
VIP


З нами з: 14.10.09
Востаннє: 05.12.16
Повідомлень: 1819

2010-10-06 20:32  
Krobak - Vorkoma (EP) (2008) [FLAC] | Post-Rock / Instrumental / Avantgarde



Стиль: Post-Rock / Instrumental / Avantgarde
Країна, місто: Україна, Свердловськ Луганської обл. - Київ
Сайти:

Видавець: Krobak (LE CD-R)
Виконавці:
Krobak:

Ігор Сидоренко - гітари, бас, клавішні, барабани, ефекти, комп'ютер

Пісні:
    01. They're All Shot This Winter (06:12)
    02. Three Tired Hands (04:00)
    03. As Fresh As The Air Of The Night (04:06)
    04. Everyday I set My Gaze Towards The East Waiting For The Sun (06:38)
log
Exact Audio Copy V0.99 prebeta 5 from 4. May 2009

EAC extraction logfile from 6. October 2010, 20:27

Krobak / Vorkoma

Used drive : TEAC CD-W540E Adapter: 1 ID: 0

Read mode : Secure
Utilize accurate stream : Yes
Defeat audio cache : Yes
Make use of C2 pointers : No

Read offset correction : 686
Overread into Lead-In and Lead-Out : No
Fill up missing offset samples with silence : Yes
Delete leading and trailing silent blocks : No
Null samples used in CRC calculations : Yes
Used interface : Installed external ASPI interface
Gap handling : Not detected, thus appended to previous track

Used output format : Internal WAV Routines
Sample format : 44.100 Hz; 16 Bit; Stereo

TOC of the extracted CD

Track | Start | Length | Start sector | End sector
---------------------------------------------------------
1 | 0:00.00 | 6:14.16 | 0 | 28065
2 | 6:14.16 | 4:02.32 | 28066 | 46247
3 | 10:16.48 | 4:08.32 | 46248 | 64879
4 | 14:25.05 | 6:40.27 | 64880 | 94906
5 | 21:05.32 | 11:01.32 | 94907 | 144513
6 | 32:06.64 | 12:21.20 | 144514 | 200108

Track 1

Filename G:\Krobak - Vorkoma (EP) [2008] FLAC\Krobak , They're all shot this winter.wav

Peak level 100.0 %
Track quality 99.9 %
Test CRC 4EE9AE88
Copy CRC 4EE9AE88
Track not present in AccurateRip database
Copy OK

Track 2

Filename G:\Krobak - Vorkoma (EP) [2008] FLAC\Krobak , Three Tired Hands.wav

Peak level 100.0 %
Track quality 99.9 %
Test CRC E2D9D735
Copy CRC E2D9D735
Track not present in AccurateRip database
Copy OK

Track 3

Filename G:\Krobak - Vorkoma (EP) [2008] FLAC\Krobak , As Fresh As the Air of the Nig.wav

Peak level 100.0 %
Track quality 100.0 %
Test CRC 784BCCE2
Copy CRC 784BCCE2
Track not present in AccurateRip database
Copy OK

Track 4

Filename G:\Krobak - Vorkoma (EP) [2008] FLAC\Krobak , Everyday I set my Gaze towards.wav

Peak level 83.4 %
Track quality 100.0 %
Test CRC 4B70DCE7
Copy CRC 4B70DCE7
Track not present in AccurateRip database
Copy OK

None of the tracks are present in the AccurateRip database

No errors occurred

End of status report
Тривалість: 00:20:56
Мова: інструментальні композиції
Аудіо-кодек: FLAC
Бітрейт: 372-721 кб/с, 16 bit / 44100 Hz
Джерело: власний диск > ріп EAC



Срібний реліз (на рейтинг впливає 50% завантаженого)
 Трекер:    Зареєстрований   

Завантажити / скачати українську музику



відео для новачків



 Зареєстрований:   2010-10-06 20:32
 Розмір:   82 MB 
 Оцінка музики:   10/10 (Голосів: 3)
   
Ваш часовий пояс: GMT + 2 Години

Нова тема   Відповісти