Завантажити та скачати торренти українською


VA - The Best Dance Music From Ukraine (1997) [APE] | Dance

Нові коментарі

Нова тема   Відповісти
Автор Повідомлення
iwan wan 
VIP


З нами з: 01.10.09
Востаннє: 05.12.16
Повідомлень: 1756

2010-10-06 19:09  
VA - The Best Dance Music From Ukraine (1997) [APE] | Dance



Стиль: Dance
Країна, місто: Україна

Видавець: NAC
Виконавці:
Фантом-2, Ван-Гог, Тарас Курчик , Турбо-Техно-Саунд , Міф , Скрябін , Вілен , Гутен Мутер , Вікторія , Світлана Відверта, Аква Віта , Вікторія Ігнатьєва , Сергій Доценко , Степ
Пісні:
    1 Фантом-2 -Без Контролю
    2 Ван-Гог- Серця Мінор
    3 Тарас Курчик -Давай, Давай
    4 Турбо-Техно-Саунд -Піднімались Руки В гору
    5 Міф - Дорога До Бога
    6 Скрябін - Той Прикрий Світ
    7 Вілен - Не Сумуй
    8 Гутен Мутер - Здравствуйте
    9 Вікторія - Білі Мухи
    10 Світлана Відверта - Не Закривай Очі
    11 Аква Віта - Гойдаша
    12 Вікторія Ігнатьєва - Тінець Сонця
    13 Сергій Доценко - Коли Я Згадаю
    14 Степ- Мувіт Балава

Тривалість: 00:52:22
Мова: українська
Аудіо-кодек: APE
Бітрейт: 879 кб/с
Джерело: Рутрекер
Додаткова інформація:
Досить непогана збірка денс музики .

В роздачу входять високоякісні скани буклетів в форматі .tif
log
Exact Audio Copy V0.99 prebeta 5 from 4. May 2009
EAC extraction logfile from 17. May 2010, 20:30
Various / The Best Dance Music From Ukraine
Used drive : Optiarc DVD RW AD-7170S Adapter: 2 ID: 2
Read mode : Secure
Utilize accurate stream : Yes
Defeat audio cache : Yes
Make use of C2 pointers : No
Read offset correction : 48
Overread into Lead-In and Lead-Out : No
Fill up missing offset samples with silence : Yes
Delete leading and trailing silent blocks : No
Null samples used in CRC calculations : Yes
Used interface : Installed external ASPI interface
Used output format : Internal WAV Routines
Sample format : 44.100 Hz; 16 Bit; Stereo
TOC of the extracted CD
Track | Start | Length | Start sector | End sector
---------------------------------------------------------
1 | 0:00.00 | 5:43.38 | 0 | 25762
2 | 5:43.38 | 4:37.02 | 25763 | 46539
3 | 10:20.40 | 4:02.35 | 46540 | 64724
4 | 14:23.00 | 3:28.40 | 64725 | 80364
5 | 17:51.40 | 2:50.25 | 80365 | 93139
6 | 20:41.65 | 4:09.18 | 93140 | 111832
7 | 24:51.08 | 3:35.15 | 111833 | 127972
8 | 28:26.23 | 3:13.62 | 127973 | 142509
9 | 31:40.10 | 3:46.35 | 142510 | 159494
10 | 35:26.45 | 4:22.38 | 159495 | 179182
11 | 39:49.08 | 3:45.52 | 179183 | 196109
12 | 43:34.60 | 4:28.40 | 196110 | 216249
13 | 48:03.25 | 2:18.33 | 216250 | 226632
14 | 50:21.58 | 4:00.30 | 226633 | 244662
Range status and errors
Selected range
Filename H:\torrents UPLOAD\UKR\V.A. - 1997 - The Best Dance Music From Ukraine\V.A. - 1997 - The Best Dance Music From Ukraine.wav
Peak level 70.7 %
Range quality 100.0 %
Test CRC 5A1A575C
Copy CRC 5A1A575C
Copy OK
No errors occurred
AccurateRip summary
Track 1 not present in database
Track 2 not present in database
Track 3 not present in database
Track 4 not present in database
Track 5 not present in database
Track 6 not present in database
Track 7 not present in database
Track 8 not present in database
Track 9 not present in database
Track 10 not present in database
Track 11 not present in database
Track 12 not present in database
Track 13 not present in database
Track 14 not present in database
None of the tracks are present in the AccurateRip database
End of status report
Якщо Ви справді бажаєте підтримати українське - після прослуховування, якщо музика вам сподобалась, придбайте ліцензійний диск. Підтримаймо вітчизняних виконавців!


Срібний реліз (на рейтинг впливає 50% завантаженого)
 Трекер:    Зареєстрований   

Завантажити / скачати українську музику



відео для новачків



 Зареєстрований:   2010-10-06 19:11
 Розмір:   421 MB 
 Оцінка музики:   9.9/10 (Голосів: 10)
   
stad-nick 
Новенький


З нами з: 13.08.11
Востаннє: 05.12.16
Повідомлень: 24

2015-04-25 00:32  
iwan wan, а чи буде реліз цього збірника в MP3 ? Дякую.
lpershyi 
Попереджень: 2
Попереджень: 2 


З нами з: 04.01.11
Востаннє: 30.11.16
Повідомлень: 2622

2015-06-21 04:19  
iwan wan написано:
8 Гутен Мутер - Здравствуйте

Цитата:
8. Ґутен Муттер - Здраствуйте, товарищи бойцы
і мова тут не українська, хто може виправіть неточності в описі! Я б залюбки, але мені ніхто не надав такого права.
більше про іноземномовний гурт Ґутен Муттер

Ваш часовий пояс: GMT + 2 Години

Нова тема   Відповісти