Завантажити та скачати торренти українською


САД - Доле, де ти?! Живий звук (2 CD) (2007) [FLAC] | Hard Rock / Heavy Metal

Нові коментарі

Нова тема   Відповісти
Автор Повідомлення
Lev 
VIP


З нами з: 14.10.09
Востаннє: 28.11.16
Повідомлень: 1819

2010-10-02 20:51  
САД - Доле, де ти?! Живий звук (2 CD) (2007) [FLAC] | Hard Rock / Heavy Metal



Стиль: Hard Rock / Heavy Metal
Країна, місто: Україна, Дніпропетровськ - Київ
Сайти: Офіційний сайт
Видавець: JRC
Виконавці:
Сергій Решетник - гітара, вокал, музика, зведення
Андрій Дроздов - бас-гітара, бек-вокал (6 - СD1, 3 - CD2), музика
Павло Зубков - барабани
Каріне Папян - клавішні, сопілка
Олена Пилипенко - бек-вокал
В'ячеслав Ільїн - бек-вокал, менеджмент

Володимир Умаров - звукорежисура, мастеринг
Пісні:
    СD 1 :

    01. Вступ (03:10)
    02. Єсть на світі доля (06:06)
    03. Над Дніпровою сагою (04:49)
    04. Ой діброво-темний гаю! (05:57)
    05. Тече вода з-під явора… (06:27)
    06. Зелена травка (06:19)
    07. Не женися на багатій… (06:06)
    08. Гоп, гей гоп (07:08)
    09. Ой гоп не пила (13:11)
    log
    Exact Audio Copy V0.99 prebeta 5 from 4. May 2009

    EAC extraction logfile from 1. October 2010, 14:49

    Доле, де ти?! / САД

    Used drive : TEAC CD-W540E Adapter: 1 ID: 0

    Read mode : Secure
    Utilize accurate stream : Yes
    Defeat audio cache : Yes
    Make use of C2 pointers : No

    Read offset correction : 686
    Overread into Lead-In and Lead-Out : No
    Fill up missing offset samples with silence : Yes
    Delete leading and trailing silent blocks : No
    Null samples used in CRC calculations : Yes
    Used interface : Installed external ASPI interface
    Gap handling : Not detected, thus appended to previous track

    Used output format : User Defined Encoder
    Selected bitrate : 1024 kBit/s
    Quality : High
    Add ID3 tag : No
    Command line compressor : C:\Program Files\Exact Audio Copy\Flac\flac.exe
    Additional command line options : -8 –V -T "ARTIST=%a" –T "TITLE=%t" -T "ALBUM =%g" -T "DATE =%y" –T "TRACKNUMBER=%n" -T "GENRE =%m" -T" COMMENT= EAC FLAC -8 "%s

    TOC of the extracted CD

    Track | Start | Length | Start sector | End sector
    ---------------------------------------------------------
    1 | 0:00.00 | 3:10.23 | 0 | 14272
    2 | 3:10.23 | 6:06.74 | 14273 | 41796
    3 | 9:17.22 | 4:49.35 | 41797 | 63506
    4 | 14:06.57 | 5:57.31 | 63507 | 90312
    5 | 20:04.13 | 6:27.69 | 90313 | 119406
    6 | 26:32.07 | 6:19.44 | 119407 | 147875
    7 | 32:51.51 | 6:06.61 | 147876 | 175386
    8 | 38:58.37 | 7:08.51 | 175387 | 207537
    9 | 46:07.13 | 13:09.73 | 207538 | 266785
    10 | 61:49.11 | 6:05.71 | 278186 | 305631

    Track 1

    Filename G:\Сад - Доле, де ти [2007] FLAC\Track01.wav

    Peak level 90.2 %
    Track quality 100.0 %
    Test CRC 846800FE
    Copy CRC 846800FE
    Track not present in AccurateRip database
    Copy OK

    Track 2

    Filename G:\Сад - Доле, де ти [2007] FLAC\Track02.wav

    Peak level 97.5 %
    Track quality 100.0 %
    Test CRC 427876E0
    Copy CRC 427876E0
    Track not present in AccurateRip database
    Copy OK

    Track 3

    Filename G:\Сад - Доле, де ти [2007] FLAC\Track03.wav

    Peak level 99.4 %
    Track quality 100.0 %
    Test CRC 667B7EF8
    Copy CRC 667B7EF8
    Track not present in AccurateRip database
    Copy OK

    Track 4

    Filename G:\Сад - Доле, де ти [2007] FLAC\Track04.wav

    Peak level 99.4 %
    Track quality 100.0 %
    Test CRC E505E555
    Copy CRC E505E555
    Track not present in AccurateRip database
    Copy OK

    Track 5

    Filename G:\Сад - Доле, де ти [2007] FLAC\Track05.wav

    Peak level 97.4 %
    Track quality 100.0 %
    Test CRC 8440DCE3
    Copy CRC 8440DCE3
    Track not present in AccurateRip database
    Copy OK

    Track 6

    Filename G:\Сад - Доле, де ти [2007] FLAC\Track06.wav

    Peak level 100.0 %
    Track quality 100.0 %
    Test CRC A114DF86
    Copy CRC A114DF86
    Track not present in AccurateRip database
    Copy OK

    Track 7

    Filename G:\Сад - Доле, де ти [2007] FLAC\Track07.wav

    Peak level 99.0 %
    Track quality 100.0 %
    Test CRC CC7B88E0
    Copy CRC CC7B88E0
    Track not present in AccurateRip database
    Copy OK

    Track 8

    Filename G:\Сад - Доле, де ти [2007] FLAC\Track08.wav

    Peak level 100.0 %
    Track quality 99.9 %
    Test CRC A316EA98
    Copy CRC A316EA98
    Track not present in AccurateRip database
    Copy OK

    Track 9

    Filename G:\Сад - Доле, де ти [2007] FLAC\Track09.wav

    Peak level 100.0 %
    Track quality 99.9 %
    Test CRC FBD84909
    Copy CRC FBD84909
    Track not present in AccurateRip database
    Copy OK

    None of the tracks are present in the AccurateRip database

    No errors occurred

    End of status report
    CD 2 :

    01. Вступ (03:05)
    02. Косар (07:20)
    03. У всякого своя доля… (10:09)
    04. Доле, де ти?! (11:28)
    05. Тим неситим очам… (09:23)
    06. Було колись – в Україні (07:53)
    07. Нащо мені женитися? (07:52)
    log
    Exact Audio Copy V0.99 prebeta 5 from 4. May 2009

    EAC extraction logfile from 1. October 2010, 16:22

    САД / Доле, де ти?!

    Used drive : TEAC CD-W540E Adapter: 1 ID: 0

    Read mode : Secure
    Utilize accurate stream : Yes
    Defeat audio cache : Yes
    Make use of C2 pointers : No

    Read offset correction : 686
    Overread into Lead-In and Lead-Out : No
    Fill up missing offset samples with silence : Yes
    Delete leading and trailing silent blocks : No
    Null samples used in CRC calculations : Yes
    Used interface : Installed external ASPI interface
    Gap handling : Not detected, thus appended to previous track

    Used output format : Internal WAV Routines
    Sample format : 44.100 Hz; 16 Bit; Stereo

    TOC of the extracted CD

    Track | Start | Length | Start sector | End sector
    ---------------------------------------------------------
    1 | 0:00.00 | 3:05.47 | 0 | 13921
    2 | 3:05.47 | 7:20.57 | 13922 | 46978
    3 | 10:26.29 | 10:09.55 | 46979 | 92708
    4 | 20:36.09 | 11:28.41 | 92709 | 144349
    5 | 32:04.50 | 9:23.29 | 144350 | 186603
    6 | 41:28.04 | 7:53.38 | 186604 | 222116
    7 | 49:21.42 | 7:50.59 | 222117 | 257425
    8 | 59:44.26 | 7:33.62 | 268826 | 302862

    Track 1

    Filename G:\Сад - Доле, де ти [2007] FLAC\Track01.wav

    Peak level 97.8 %
    Track quality 99.9 %
    Test CRC DE71DDB4
    Copy CRC DE71DDB4
    Track not present in AccurateRip database
    Copy OK

    Track 2

    Filename G:\Сад - Доле, де ти [2007] FLAC\Track02.wav

    Peak level 100.0 %
    Track quality 100.0 %
    Test CRC 23D0FD7E
    Copy CRC 23D0FD7E
    Track not present in AccurateRip database
    Copy OK

    Track 3

    Filename G:\Сад - Доле, де ти [2007] FLAC\Track03.wav

    Peak level 99.7 %
    Track quality 100.0 %
    Test CRC FDEAC27C
    Copy CRC FDEAC27C
    Track not present in AccurateRip database
    Copy OK

    Track 4

    Filename G:\Сад - Доле, де ти [2007] FLAC\Track04.wav

    Peak level 99.6 %
    Track quality 100.0 %
    Test CRC CC80C781
    Copy CRC CC80C781
    Track not present in AccurateRip database
    Copy OK

    Track 5

    Filename G:\Сад - Доле, де ти [2007] FLAC\Track05.wav

    Peak level 100.0 %
    Track quality 100.0 %
    Test CRC 1819D873
    Copy CRC 1819D873
    Track not present in AccurateRip database
    Copy OK

    Track 6

    Filename G:\Сад - Доле, де ти [2007] FLAC\Track06.wav

    Peak level 99.2 %
    Track quality 99.9 %
    Test CRC D8D01CBE
    Copy CRC D8D01CBE
    Track not present in AccurateRip database
    Copy OK

    Track 7

    Filename G:\Сад - Доле, де ти [2007] FLAC\Track07.wav

    Peak level 100.0 %
    Track quality 100.0 %
    Test CRC E5304AC1
    Copy CRC E5304AC1
    Track not present in AccurateRip database
    Copy OK

    None of the tracks are present in the AccurateRip database

    No errors occurred

    End of status report


Тривалість: 01:56:20
Мова: українська
Аудіо-кодек: FLAC
Бітрейт: 642-912 кб/с, 16 bit / 44100 Hz
Джерело: власний диск > ріп EAC
Додаткова інформація:
Мега-зачотний, метальний шевченківський концерт групи САД.
Диск досить раритетний - тираж був усього 500 шт.

Бонус-відео можете дістати з роздачі цього диску в MP3


Також на Торрент-Толоці Гуртом ви можете знайти :

САД - Доле, де ти?! Живий звук (2 CD) (2007) [MP3]


Якщо Ви справді бажаєте підтримати українське - після прослуховування, якщо музика вам сподобалась, придбайте ліцензійний диск. Підтримаймо вітчизняних виконавців!


Срібний реліз (на рейтинг впливає 50% завантаженого)
 Трекер:    Зареєстрований   

Завантажити / скачати українську музику



відео для новачків



 Зареєстрований:   2010-10-02 20:51
 Розмір:   714 MB 
 Оцінка музики:   9.8/10 (Голосів: 20)
   
Ne_Vitalik 
Новенький


З нами з: 18.02.11
Востаннє: 24.02.16
Повідомлень: 14

2011-12-15 11:06  
А є в них ще якісь альбоми?
civ 
VIP


З нами з: 16.02.11
Востаннє: 02.12.16
Повідомлень: 428

2011-12-15 13:20  
Є студійний 1-дисковий альбом цих же пісень: http://toloka.to/t8719
Ne_Vitalik 
Новенький


З нами з: 18.02.11
Востаннє: 24.02.16
Повідомлень: 14

2011-12-19 10:32  
Мені цей якись драйвовіший) жаль що інших нема(
Козак_я 
Новенький


З нами з: 14.12.08
Востаннє: 24.11.16
Повідомлень: 17

2012-04-07 22:48  
будуть)
MrMusiy 
Новенький


З нами з: 09.03.13
Востаннє: 09.03.13
Повідомлень: 1

2013-03-09 18:18  
Дайте будь-ласка роздачу!
Ваш часовий пояс: GMT + 2 Години

Нова тема   Відповісти