Завантажити та скачати торренти українською


Самата - Fire-Show (2008) [FLAC] | Fusion / New Age / Ethno Jazz

Нові коментарі

Нова тема   Відповісти
Автор Повідомлення
Lev 
VIP


З нами з: 14.10.09
Востаннє: 05.12.16
Повідомлень: 1819

2010-10-01 12:18  
Самата - Fire-Show (2008) [FLAC] | Fusion / New Age / Ethno Jazz



Стиль: Fusion, New Age, Ethno Jazz
Країна, місто: Україна, Чернівці
Видавець: Країна Мрій
Виконавці:
Сергій Собіщанський - мандоліна, гітари (крім 1,8,9,10), бас (2,7), клавішні, перкусія, драм-машина
Валерій Петрович - саксофон, клавішні (7)
Сергій Шаляпін - бас (1,4,6,8,9,10), гітара (1,9)
Валерій Марченко - гітара (1,8,9,10), флейта (7)
Максим Рибчук - труба (4,9,10,11)
Євген Воєвідка - губна гармоніка (5)
Микола Кучерян - акордеон (2)
Оксана Шпілька - сопілка (5)
Дмитро Фельман - електросмичок (3)
Валентин Шаляпін - ксилофон (5,7), перкусія (9,14)
Олександр Філіпов - клавішні (2,13)
Олексанр Мацько - клавішні (5)
Дмитро Герасим'юк - тромбон (14)
Едуард Гаврищук - дримба (2)
Тарас Ніцович - семплер, клавішні, варган, перкусія.

Пісні:
    01. Південь (03:59)
    02. Місяць (02:53)
    03. Тибет (04:53)
    04. Схід (03:20)
    05. Ребро Адама (04:17)
    06. Космо (04:18)
    07. Карпати (03:42)
    08. Осінь (03:22)
    09. Fire-Show (04:50)
    10. Чернівці (02:56)
    11. Захід (03:12)
    12. Північ (04:00)

    бонуси:

    13. Осінь (mix) (03:39)
    14. Fire-Show (mix) (04:25)
    15. Тибет (+ духові) (05:00)
log
Exact Audio Copy V0.99 prebeta 5 from 4. May 2009

EAC extraction logfile from 30. September 2010, 10:55

Samata / Fire-Show

Used drive : TEAC CD-W540E Adapter: 1 ID: 0

Read mode : Secure
Utilize accurate stream : Yes
Defeat audio cache : Yes
Make use of C2 pointers : No

Read offset correction : 686
Overread into Lead-In and Lead-Out : No
Fill up missing offset samples with silence : Yes
Delete leading and trailing silent blocks : No
Null samples used in CRC calculations : Yes
Used interface : Installed external ASPI interface
Gap handling : Not detected, thus appended to previous track

Used output format : Internal WAV Routines
Sample format : 44.100 Hz; 16 Bit; Stereo

TOC of the extracted CD

Track | Start | Length | Start sector | End sector
---------------------------------------------------------
1 | 0:00.00 | 3:58.70 | 0 | 17919
2 | 3:58.70 | 2:53.26 | 17920 | 30920
3 | 6:52.21 | 4:52.42 | 30921 | 52862
4 | 11:44.63 | 3:19.73 | 52863 | 67860
5 | 15:04.61 | 4:16.53 | 67861 | 87113
6 | 19:21.39 | 4:18.19 | 87114 | 106482
7 | 23:39.58 | 3:41.64 | 106483 | 123121
8 | 27:21.47 | 3:21.60 | 123122 | 138256
9 | 30:43.32 | 4:49.43 | 138257 | 159974
10 | 35:33.00 | 2:56.25 | 159975 | 173199
11 | 38:29.25 | 3:12.18 | 173200 | 187617
12 | 41:41.43 | 3:59.68 | 187618 | 205610
13 | 45:41.36 | 3:38.54 | 205611 | 222014
14 | 49:20.15 | 4:24.73 | 222015 | 241887
15 | 53:45.13 | 5:00.00 | 241888 | 264387

Track 1

Filename G:\Самата - Fire-Show [2008] FLAC\Pivden.wav

Peak level 100.0 %
Track quality 100.0 %
Test CRC 4B1346A1
Copy CRC 4B1346A1
Track not present in AccurateRip database
Copy OK

Track 2

Filename G:\Самата - Fire-Show [2008] FLAC\Misyats.wav

Peak level 100.0 %
Track quality 99.9 %
Test CRC 196C3C2C
Copy CRC 196C3C2C
Track not present in AccurateRip database
Copy OK

Track 3

Filename G:\Самата - Fire-Show [2008] FLAC\Tybet.wav

Peak level 100.0 %
Track quality 99.9 %
Test CRC 5727C3C2
Copy CRC 5727C3C2
Track not present in AccurateRip database
Copy OK

Track 4

Filename G:\Самата - Fire-Show [2008] FLAC\Shid.wav

Peak level 100.0 %
Track quality 100.0 %
Test CRC FA3548C6
Copy CRC FA3548C6
Track not present in AccurateRip database
Copy OK

Track 5

Filename G:\Самата - Fire-Show [2008] FLAC\Rebro Adama.wav

Peak level 100.0 %
Track quality 99.9 %
Test CRC DE64B751
Copy CRC DE64B751
Track not present in AccurateRip database
Copy OK

Track 6

Filename G:\Самата - Fire-Show [2008] FLAC\Cosmo.wav

Peak level 100.0 %
Track quality 100.0 %
Test CRC C30F0D7B
Copy CRC C30F0D7B
Track not present in AccurateRip database
Copy OK

Track 7

Filename G:\Самата - Fire-Show [2008] FLAC\Carpaty.wav

Peak level 100.0 %
Track quality 100.0 %
Test CRC 2EAF06C5
Copy CRC 2EAF06C5
Track not present in AccurateRip database
Copy OK

Track 8

Filename G:\Самата - Fire-Show [2008] FLAC\Osin.wav

Peak level 100.0 %
Track quality 100.0 %
Test CRC 9975EA7A
Copy CRC 9975EA7A
Track not present in AccurateRip database
Copy OK

Track 9

Filename G:\Самата - Fire-Show [2008] FLAC\Fireshow.wav

Peak level 100.0 %
Track quality 99.9 %
Test CRC 7B4D928C
Copy CRC 7B4D928C
Track not present in AccurateRip database
Copy OK

Track 10

Filename G:\Самата - Fire-Show [2008] FLAC\Chernivtsi.wav

Peak level 100.0 %
Track quality 99.9 %
Test CRC D1565770
Copy CRC D1565770
Track not present in AccurateRip database
Copy OK

Track 11

Filename G:\Самата - Fire-Show [2008] FLAC\Zahid.wav

Peak level 100.0 %
Track quality 99.9 %
Test CRC 358A4DD5
Copy CRC 358A4DD5
Track not present in AccurateRip database
Copy OK

Track 12

Filename G:\Самата - Fire-Show [2008] FLAC\Pivnitch.wav

Peak level 100.0 %
Track quality 100.0 %
Test CRC AAE01BA1
Copy CRC AAE01BA1
Track not present in AccurateRip database
Copy OK

Track 13

Filename G:\Самата - Fire-Show [2008] FLAC\Osin (mix).wav

Peak level 100.0 %
Track quality 100.0 %
Test CRC EBC4B170
Copy CRC EBC4B170
Track not present in AccurateRip database
Copy OK

Track 14

Filename G:\Самата - Fire-Show [2008] FLAC\Fireshow (mix).wav

Peak level 100.0 %
Track quality 99.9 %
Test CRC A880B130
Copy CRC A880B130
Track not present in AccurateRip database
Copy OK

Track 15

Filename G:\Самата - Fire-Show [2008] FLAC\Tybet+.wav

Peak level 100.0 %
Track quality 100.0 %
Test CRC 76EBB4DE
Copy CRC 76EBB4DE
Track not present in AccurateRip database
Copy OK

None of the tracks are present in the AccurateRip database

No errors occurred

End of status report
Тривалість: 00:58:45
Мова: інструментальні композиції
Аудіо-кодек: FLAC
Бітрейт: 847-984 кб/с
Джерело: власний диск > ріп EAC
Додаткова інформація:
Записано протягом 2005-2007 рр. у м.Чернівці.
Аранжування, запис, монтаж, зведення - Т.Ніцович та С.Собіщанський.
Мастерінг - О.Мацько, "Буковина Music", Чернівці 2007 р.

оформлення - О.Льохін, В.Марченко, І.Павчак, John Art.
переклади поезій в буклеті - В.Ніцович, М.Шутак.


Також на Торрент-Толоці Гуртом ви можете знайти :

Самата - Fire-Show (2008) [MP3]


Якщо Ви справді бажаєте підтримати українське - після прослуховування, якщо музика вам сподобалась, придбайте ліцензійний диск. Підтримаймо вітчизняних виконавців!


Срібний реліз (на рейтинг впливає 50% завантаженого)
 Трекер:    Зареєстрований   

Завантажити / скачати українську музику



відео для новачків



 Зареєстрований:   2011-07-01 21:23
 Розмір:   547 MB 
 Оцінка музики:   10/10 (Голосів: 6)
   
Lev 
VIP


З нами з: 14.10.09
Востаннє: 05.12.16
Повідомлень: 1819

2010-10-20 04:06  
чого так мало завантажуэте?
альбом бомбічний

nahema 
Частий відвідувач


З нами з: 05.01.10
Востаннє: 27.11.16
Повідомлень: 40

2010-10-27 01:29  
Вантажу залюбки Happy

З.І. А що ще є серед українського в такому напрямку, і такої якості? Happy

Lev 
VIP


З нами з: 14.10.09
Востаннє: 05.12.16
Повідомлень: 1819

2010-10-27 15:34  
nahema написано:
З.І. А що ще є серед українського в такому напрямку, і такої якості?


ну, власне, поки що всі чинники докупи вдалося зібрати лише цим хлопцям і дівчатам, імхо Happy

раджу послухати Лео, в цьому розділі викладав його альбом.

Lev 
VIP


З нами з: 14.10.09
Востаннє: 05.12.16
Повідомлень: 1819

2011-07-01 21:26  
Щойно замінив торрент-файл - додав якісні скани буклету.

А тимчасом ця мольфарська банда видала новий альбом

Skiff 
музика
музика


З нами з: 12.11.07
Востаннє: 06.12.16
Повідомлень: 3051

2011-07-17 14:38  
Lev написано:
А тимчасом ця мольфарська банда видала новий альбом 

Смачні мікси.

Lev 
VIP


З нами з: 14.10.09
Востаннє: 05.12.16
Повідомлень: 1819

2011-07-18 04:10  
Skiff

Уже замовив собі диск Wink (1)

Ваш часовий пояс: GMT + 2 Години

Нова тема   Відповісти