Завантажити та скачати торренти українською


Yelena Popova (Олена Попова) - Voices From My Soul (2008) [APE] | Jazz

Нові коментарі

Нова тема   Відповісти
Останній раз роздавалося ssTAss (2016-11-27)
Автор Повідомлення
ssTAss 
Модератор музики


З нами з: 05.07.08
Востаннє: 03.12.16
Повідомлень: 10932

2010-09-29 16:34  
Yelena Popova (Олена Попова) - Voices From My Soul (2008) [APE] | Jazz



Стиль: Jazz
Країна, місто: Україна, Київ
Видавець: Masterwort production
Виконавці:
Олена Попова



У записі альбому Олени Попової "Voices from My Soul" брали участь відомі українські і зарубіжні джазові музиканти:
Ерік Маріентал, Андрій Кондаков & Brazil All Stars, Apple Tea, Z-Band, Схід-Side, Богдан Гуменюк, Сергій Овсяников, Юрій Шепета.
Продюсер проекту Олексій Коган так розповів про свої враження від роботи над диском:
"...Олена тонка і дуже лірична співачка, що уміє "розповісти" пісню і створити настрій альбому нюансами, паузами, диханням... Сьогодні це достатньо рідкісний дар. Плюс - першокласне оточення досвідчених, яскравих інструменталістів і аранжувальників.
Є у цієї роботи ще одна особливість - добре відомі всім пісні звучать по-новому і дуже щиро."
Альбом "Voices from My Soul" випущений центром "Masterwort production", за сприяння Фонду мистецтв Владимира Філіппова і продюсерського центру "Jazz in Kiev".
Запис вокальних партій, зведення та мастеринг - студія Кофеїн.
Пісні:
    1. Begin The Beguine (feat. Eric Mariental)
    музика: C. Porter
    2. Come Together (feat. Igor & Yan Perchuk)
    музика: J. Lennon - P. McCartney
    3. Wild Is The Wind (feat. Yuri Shepeta)
    музика: D. Tiomkin
    4. Josie (feat. (Z-Band)
    музика: D. Fagen - W. Becker
    5. Living On The Inside (feat. Bogdan Gumeniuk)
    музика: M. Franks
    6. Fame (feat. (Сергій Овсяников)
    музика: M. Gore - D. Pitchford
    7. Kolysanka Rosemary (feat. (Схід-Side)
    музика: K. Komeda - W. Mlynarski
    8. To Say Goodbye /Pra Dizer Adeus (feat. Andrey Kondakov & Brazil All Stars)
    музика: E. Lobo
    9. Rio de Janeiro Blue (feat. Apple Tea)
    музика: J. Hoeny - R. Torrance
    10. Sway (feat. Apple Tea)
    музика: N. Gimbel - G. Ruiz
    11. P.S. Wild Is The Wind (live) (feat. Yuri Shepeta & (Родіон Іванов)
    музика: D. Tiomkin
    log
    Exact Audio Copy V0.99 prebeta 4 from 23. January 2008

    Отчёт EAC об извлечении, выполненном 14. октября 2009, 21:41

    Yelena Popova / Voices From My Soul

    Дисковод: Optiarc DVD RW AD-7200A Adapter: 3 ID: 1

    Режим чтения : Достоверность
    Использование точного потока : Да
    Отключение кэша аудио : Да
    Использование указателей C2 : Нет

    Коррекция смещения при чтении : 48
    Способность читать области Lead-in и Lead-out : Нет
    Заполнение пропущенных сэмплов тишиной : Да
    Удаление блоков с тишиной в начале и конце : Нет
    При вычислениях CRC использовались нулевые сэмплы : Да
    Интерфейс : Установленный внешний ASPI-интерфейс

    Выходной формат : Внутренние WAV-операции
    Формат сэмплов : 44.100 Гц; 16 бит; стерео

    TOC извлечённого CD

    Трек | Старт | Длительность | Начальный сектор | Конечный сектор
    ---------------------------------------------------------------------
    1 | 0:00.00 | 4:49.42 | 0 | 21716
    2 | 4:49.42 | 3:13.27 | 21717 | 36218
    3 | 8:02.69 | 4:40.08 | 36219 | 57226
    4 | 12:43.02 | 5:17.29 | 57227 | 81030
    5 | 18:00.31 | 5:03.11 | 81031 | 103766
    6 | 23:03.42 | 5:07.26 | 103767 | 126817
    7 | 28:10.68 | 4:18.65 | 126818 | 146232
    8 | 32:29.58 | 5:56.12 | 146233 | 172944
    9 | 38:25.70 | 4:36.63 | 172945 | 193707
    10 | 43:02.58 | 3:53.17 | 193708 | 211199
    11 | 46:56.00 | 4:36.25 | 211200 | 231924

    Характеристики диапазона извлечения и сообщения об ошибках

    Выбранный диапазон

    Имя файла E:\Up-Down\Yelena Popova - Voices From My Soul\Yelena Popova - Voices From My Soul.wav

    Пиковый уровень 97.7 %
    Качество диапазона 100.0 %
    CRC копии 72B3E1EC
    Копирование... OK

    Ошибок не произошло

    AccurateRip: сводка

    Трек 1 нет в базе данных
    Трек 2 нет в базе данных
    Трек 3 нет в базе данных
    Трек 4 нет в базе данных
    Трек 5 нет в базе данных
    Трек 6 нет в базе данных
    Трек 7 нет в базе данных
    Трек 8 нет в базе данных
    Трек 9 нет в базе данных
    Трек 10 нет в базе данных
    Трек 11 нет в базе данных

    Ни одного трека нет в базе AccurateRip

    Конец отчёта

Тривалість: 00:51:32
Мова: англійська
Аудіо-кодек: APE
Бітрейт: 766 кб/с
Джерело: rutracker
Додаткова інформація:
Щиро кажучи, про те, що це – дебютний альбом, згадуєш двічі. Вперше – до того, як починаєш слухати: з відчуттям обережної цікавості, бо ще не знаєш напевно, чого чекати від платівки. Вдруге – вже після того, як прослухаєш: з відчуттям задоволення, бо ж далеко не завжди дебют звучить настільки якісно, впевнено, як тут. Олена Попова приємно дивує універсальністю, важко визначити, що їй вдається краще – енергійні "забійники" чи ліричні, тонкі балади. Ось вона звучить яскравим спалахом, обіцяє вибух – і дарує потужні емоційні сплески. А за хвилину – лагідно, майже пошепки заколисує в затишних інтонаціях, до тихого трему доводить умінням прозоро дихати в густих осінніх фарбах... Олена Попова співає об’ємно, співає свідомо – і кожна пауза має значення, і жоден нюанс не є випадковим. Схоже, тут не йшлося про створення просто гарної прикраси: цей альбом запрошує до діалогу, пропонує уважно вслухатися в деталі аранжувань. Зрештою, до його створення долучилося чимало чудових майстрів своєї справи – Ерік Марієнтал (Eric Marienthal), Apple Tea, Андрій Кондаков, музиканти зі Схід-Side, Z-Band, Аби МС, Сергій Овсяніков, Юрій Шепета. Вдалося? Так. Гармонійно, і – нічого зайвого.
Антон Йожик Лейба


Якщо Ви справді бажаєте підтримати українське - після прослуховування, якщо музика вам сподобалась, придбайте ліцензійний диск. Підтримаймо вітчизняних виконавців!


Срібний реліз (на рейтинг впливає 50% завантаженого)
 Трекер:    Зареєстрований   

Завантажити / скачати українську музику



відео для новачків



 Зареєстрований:   2010-09-29 16:37
 Розмір:   317 MB 
 Оцінка музики:   6.1/10 (Голосів: 7)
   
AlanAlan 
Почесний гуртомівець


З нами з: 29.06.08
Востаннє: 06.02.16
Повідомлень: 1377

2010-09-30 07:08  
Я перепрошую, а в mp3 не планується?
Ваш часовий пояс: GMT + 2 Години

Нова тема   Відповісти