Завантажити та скачати торренти українською


VA - TOP 10 of Ukraine (1995) [APE] | Pop Rock

Нові коментарі

Нова тема   Відповісти
Автор Повідомлення
iwan wan 
VIP


З нами з: 01.10.09
Востаннє: 08.12.16
Повідомлень: 1762

2010-09-28 07:11  
VA - TOP 10 of Ukraine (1995) [APE] | Pop Rock



Стиль: Pop Rock
Країна, місто: Україна
Видавець: Караван CD
Виконавці:
Брати Гадюкіни, Віка, Скрябін, Левко Дурко, Руслана, Тарас Петриненко, Стелла, Таїсія Повалій, Нічлава Блюз, Володимир Бебешко та Міді
Пісні:
    1 Брати Гадюкіни - Було Не Любити
    2 Віка - Тіко Ти
    3 Скрябін - Шось Зимно
    4 Левко Дурко - Файдулі-Фай
    5 Руслана - Клен Облітає Червоний
    6 Тарас Петриненко - Новий Рік
    7 Стелла - Маскарад
    8 Таїсія Повалій - Хто Знає
    9 Нічлава Блюз - Вставай, Сонце
    10 Володимир Бебешко та Міді -Телефон-Еротік

Тривалість: 00:45:44
Мова: українська
Аудіо-кодек: APE
Бітрейт: 908 кб/с
Джеоело: Інший трекер
log
Exact Audio Copy V0.99 prebeta 5 from 4. May 2009
EAC extraction logfile from 1. September 2010, 21:27
Various / Top 10 of Ukraine
Used drive : Optiarc DVD RW AD-7170S Adapter: 2 ID: 2
Read mode : Secure
Utilize accurate stream : Yes
Defeat audio cache : Yes
Make use of C2 pointers : No
Read offset correction : 48
Overread into Lead-In and Lead-Out : No
Fill up missing offset samples with silence : Yes
Delete leading and trailing silent blocks : No
Null samples used in CRC calculations : Yes
Used interface : Installed external ASPI interface
Used output format : Internal WAV Routines
Sample format : 44.100 Hz; 16 Bit; Stereo
TOC of the extracted CD
Track | Start | Length | Start sector | End sector
---------------------------------------------------------
1 | 0:00.32 | 4:33.73 | 32 | 20579
2 | 4:34.30 | 3:56.40 | 20580 | 38319
3 | 8:30.70 | 4:59.07 | 38320 | 60751
4 | 13:30.02 | 3:04.08 | 60752 | 74559
5 | 16:34.10 | 4:14.12 | 74560 | 93621
6 | 20:48.22 | 5:01.48 | 93622 | 116244
7 | 25:49.70 | 5:26.70 | 116245 | 140764
8 | 31:16.65 | 3:34.35 | 140765 | 156849
9 | 34:51.25 | 5:19.10 | 156850 | 180784
10 | 40:10.35 | 5:33.72 | 180785 | 205831
Range status and errors
Selected range
Filename K:\torrents UPLOAD\UKR\V.A. - 1995 - Top 10 of Ukraine\V.A. - 1995 - Top 10 of Ukraine.wav
Peak level 99.0 %
Range quality 100.0 %
Test CRC 33966E8A
Copy CRC 33966E8A
Copy OK
No errors occurred
AccurateRip summary
Track 1 not present in database
Track 2 not present in database
Track 3 not present in database
Track 4 not present in database
Track 5 not present in database
Track 6 not present in database
Track 7 not present in database
Track 8 not present in database
Track 9 not present in database
Track 10 not present in database
None of the tracks are present in the AccurateRip database
End of status report
Якщо Ви справді бажаєте підтримати українське - після прослуховування, якщо музика вам сподобалась, придбайте ліцензійний диск. Підтримаймо вітчизняних виконавців!


Срібний реліз (на рейтинг впливає 50% завантаженого)
 Трекер:    Зареєстрований   

Завантажити / скачати українську музику



відео для новачків



 Зареєстрований:   2010-09-28 07:11
 Розмір:   406 MB 
 Оцінка музики:   10/10 (Голосів: 6)
   
jinotot 
Почесний оцифрувальник літератури


З нами з: 28.01.09
Востаннє: 04.12.16
Повідомлень: 3235

2010-09-28 20:05  
iwan wan, а навіщо дублювати зображення у .jpg і в .tif? Чесно кажучи, не знаю, наскільки це доцільно, особливо, якщо враховувати розмір зображень у форматі .tif...
Може, зробити якусь альтернативу за якістю і за розміром? Або лишити тільки .jpg... Ну, або принаймні в описі вказати, що до роздачі входять високоякісні скани буклету у форматі .tif, які замають близько ста метрів...
Що скажуть колеги з цього приводу?

Ну, і поки ніхто не тягнув, то я би попросив переробити також назви тек зі сканами — не починати їх з крапки, а то лінуксоїдам буде трохи незручно Wink (2)

iwan wan 
VIP


З нами з: 01.10.09
Востаннє: 08.12.16
Повідомлень: 1762

2010-09-28 21:09  
Може завтра повиправляю
dzhola 
Частий відвідувач


З нами з: 07.09.09
Востаннє: 20.11.16
Повідомлень: 41

2010-12-13 21:52  
сідери де?
sergiyko 
Забанено
Забанено


З нами з: 17.06.08
Востаннє: 13.10.13
Повідомлень: 259

2010-12-13 22:31  
Дякую дуже. Нічлава Блюз в лослес це мрія, хочь і одна пісня.
Ваш часовий пояс: GMT + 2 Години

Нова тема   Відповісти