Завантажити та скачати торренти українською


Національний ансамбль солістів „Київська камерата“ - Євген Станкович. Камерні твори (2007) [FLAC] | Classical / Avantgarde

Нові коментарі

Нова тема   Відповісти
Останній раз роздавалося abigor (2012-02-24)
Автор Повідомлення
Lev 
VIP


З нами з: 14.10.09
Востаннє: 09.12.16
Повідомлень: 1819

2010-09-28 06:18  
Національний ансамбль солістів „Київська камерата“ - Євген Станкович. Камерні твори (2007) [FLAC] | Classical / Avantgarde



Стиль: Classical / Avantgarde
Країна, місто: Україна, Київ
Сайти: Офіційний сайт
Видавець: Атлантік
Виконавці:
Національний ансамбль солістів "Київська камерата", дирижер Валерій Матюхин

Солісти: Богдана Півненко (скрипка), Андрій Тучапець (альт), Євген Оркін (кларнет)
Пісні:
    01.Камерна симфонія №5 'Потаємні поклики' для кларнету та струнних (17:22)

    Фрагменти з музики до кінофільму 'Ізгой' для камерного оркестру

    02.'Єврейська мелодія' (04:43)
    03.'Фрейлехс' (04:10)

    04.'Музика для небесних музикантів' для духового квінтету (15:12)
    05.'Гірська легенда' для альта і камерного оркестру (05:31)
    06.'Елегія ' для струнних (05:45)
    07.'Ранкова музика' для скрипки та струнних (09:08)
    log
    Exact Audio Copy V0.99 prebeta 5 from 4. May 2009

    EAC extraction logfile from 24. June 2010, 13:44

    Євген Станкович / Камерні твори

    Used drive : HL-DT-STDVDRAM GH22NS40 Adapter: 2 ID: 1

    Read mode : Secure
    Utilize accurate stream : Yes
    Defeat audio cache : Yes
    Make use of C2 pointers : No

    Read offset correction : 667
    Overread into Lead-In and Lead-Out : No
    Fill up missing offset samples with silence : Yes
    Delete leading and trailing silent blocks : No
    Null samples used in CRC calculations : Yes
    Used interface : Native Win32 interface for Win NT & 2000

    Used output format : User Defined Encoder
    Selected bitrate : 128 kBit/s
    Quality : High
    Add ID3 tag : No
    Command line compressor : C:\Program Files\FairStars Audio Converter Pro\AudioConverterPro.exe
    Additional command line options : -8 -V -T "ARTIST=%a" -T "TITLE=%t" -T "ALBUM=%g" -T "DATE=%y" -T "TRACKNUMBER=%n" -T "GENRE=%m" -T "COMMENT=EAC FLAC -8" %s

    TOC of the extracted CD

    Track | Start | Length | Start sector | End sector
    ---------------------------------------------------------
    1 | 0:00.00 | 17:21.41 | 0 | 78115
    2 | 17:21.41 | 4:42.41 | 78116 | 99306
    3 | 22:04.07 | 4:09.39 | 99307 | 118020
    4 | 26:13.46 | 15:12.21 | 118021 | 186441
    5 | 41:25.67 | 5:31.25 | 186442 | 211291
    6 | 46:57.17 | 5:45.29 | 211292 | 237195
    7 | 52:42.46 | 9:08.14 | 237196 | 278309

    Range status and errors

    Selected range

    Filename E:\Мои раздачи\Євген Станкович - Камерні твори\Євген Станкович - Камерні твори.wav

    Peak level 100.0 %
    Range quality 99.9 %
    Test CRC DC541627
    Copy CRC DC541627
    Copy OK

    No errors occurred

    End of status report

Тривалість: 01:01:00
Мова: інструментальні композиції
Аудіо-кодек: FLAC
Бітрейт: 682 кб/с, 16 bit / 44100 Hz
Джерело: ріп EAC з оригінального диску (інший трекер)



Срібний реліз (на рейтинг впливає 50% завантаженого)
 Трекер:    Зареєстрований   

Завантажити / скачати українську музику



відео для новачків



 Зареєстрований:   2010-09-30 07:03
 Розмір:   303 MB 
 Оцінка музики:   10/10 (Голосів: 4)
   
Skiff 
музика
музика


З нами з: 12.11.07
Востаннє: 09.12.16
Повідомлень: 3051

2010-09-28 07:42  
Lev написано:
Видавець: ?

Атлантік

Додано через 6 хвилин 3 секунди:

Офіційний сайт слід змінити на http://kievkamerata.org/ оскільки саме він є сайтом виконавця.
Чомусь не сходиться плейлист:

jinotot 
Почесний оцифрувальник літератури


З нами з: 28.01.09
Востаннє: 04.12.16
Повідомлень: 3235

2010-09-28 20:07  
І чекатимемо на лінки на інші релізи виконавця, які вже є на Толоці Wink (2)
Lev 
VIP


З нами з: 14.10.09
Востаннє: 09.12.16
Повідомлень: 1819

2010-09-30 07:08  
Skiff

Щодо того, що не збігається трекліст, маю версію, що це так Атлантік диски нарізав, оскільки у лог-файлі є такий момент:
TOC of the extracted CD

Track | Start | Length | Start sector | End sector
---------------------------------------------------------
1 | 0:00.00 | 17:21.41 | 0 | 78115
2 | 17:21.41 | 4:42.41 | 78116 | 99306
3 | 22:04.07 | 4:09.39 | 99307 | 118020
4 | 26:13.46 | 15:12.21 | 118021 | 186441
5 | 41:25.67 | 5:31.25 | 186442 | 211291
6 | 46:57.17 | 5:45.29 | 211292 | 237195
7 | 52:42.46 | 9:08.14 | 237196 | 278309
Тобто першим треком де-факто є саме камерна симфонія. Тому тут, очевидно, не до мене питання. Хоча помічено цікаво Happy
Додав буклет диску до роздачі, лейбл дописав, ставлю "виправлено".

Skiff 
музика
музика


З нами з: 12.11.07
Востаннє: 09.12.16
Повідомлень: 3051

2010-09-30 08:25  
Lev написано:
Тобто першим треком де-факто є саме камерна симфонія. Тому тут, очевидно, не до мене питання.
Питання знімаю. Підправив назву і ставлю "перевірено" Happy
Ваш часовий пояс: GMT + 2 Години

Нова тема   Відповісти