Завантажити та скачати торренти українською


Церковний хор "Видубичі" | Дискографія [10 альбомів] (1993-2008) [FLAC] | Christian / Folk

Нові коментарі

Нова тема   Відповісти
Автор Повідомлення
Skiff 
музика
музика


З нами з: 12.11.07
Востаннє: 08.12.16
Повідомлень: 3051

2010-09-27 22:48  
Церковний хор "Видубичі" | Дискографія [10 альбомів] (1993-2008) [FLAC] | Christian / Folk



Стиль: Christian, Folk
Країна, місто: Україна, Київ
Сайти:
Видавець: Taras Bulba Entertainment, Симфокаре
Виконавці:
Церковний хор "Видубичі"
Володимир Віняр - музичний керівник, диригент хору
Богдан Куць - директор хору
Альбоми:
    1993 - Хваліте Господа з небес

    1. Благослови, душе моя, Господа (2:08)
    2. Єдинородний Сину (1:53)
    3. Трисвяте (2:43)
    4. Алилуя (0:54)
    5. Херувимська пісня (4:10)
    6. Отця і Сина (1:05)
    7. Символ віри (4:03)
    8. Милість спокою (4:45)
    9. Достойно є (1:21)
    10. Єдиний святий (0:37)
    11. Нехай повні будуть уста наші (1:42)
    12. Ірмоси покаянного Канону св. Андрія Критського. Ірмос 1 (0:56)
    13. Ірмос 2 (0:37)
    14. Ірмос 3 (0:52)
    15. Ірмос 4 (1:13)
    16. Ірмос 5 (0:55)
    17. Кондак "Душе моя" (1:18)
    18. Ірмос 7 (1:13)
    19. Ірмос 8 (1:11)
    20. Ірмос 9 (1:15)
    21. Світе тихий (3:11)
    22. В пам’ять вічну буде праведник (2:35)
    23. О всепітая мати (2:17)
    24. Молитву пролію (2:58)
    25. Під твою милість (1:51)
    26. Бог Богів (1:35)
    27. Хваліте Господа з небес (0:59)
    EAC Log
    Exact Audio Copy V0.99 prebeta 5 from 4. May 2009

    Отчёт EAC об извлечении, выполненном 4. марта 2010, 20:23

    Церковний хор Видубичі / Хваліте Господа з небес

    Дисковод: Optiarc DVD RW AD-7173S Adapter: 5 ID: 0

    Режим чтения : Достоверность
    Использование точного потока : Да
    Отключение кэша аудио : Да
    Использование указателей C2 : Нет

    Коррекция смещения при чтении : 48
    Способность читать области Lead-in и Lead-out : Нет
    Заполнение пропущенных сэмплов тишиной : Да
    Удаление блоков с тишиной в начале и конце : Нет
    При вычислениях CRC использовались нулевые сэмплы : Да
    Интерфейс : Встроенный Win32-интерфейс для Win NT/2000

    Выходной формат : Внутренние WAV-операции
    Формат сэмплов : 44.100 Гц; 16 бит; стерео

    TOC извлечённого CD

    Трек | Старт | Длительность | Начальный сектор | Конечный сектор
    ---------------------------------------------------------------------
    1 | 0:00.00 | 2:09.56 | 0 | 9730
    2 | 2:09.56 | 1:53.50 | 9731 | 18255
    3 | 4:03.31 | 2:43.45 | 18256 | 30525
    4 | 6:47.01 | 0:54.05 | 30526 | 34580
    5 | 7:41.06 | 4:11.19 | 34581 | 53424
    6 | 11:52.25 | 1:05.29 | 53425 | 58328
    7 | 12:57.54 | 4:02.55 | 58329 | 76533
    8 | 17:00.34 | 4:47.24 | 76534 | 98082
    9 | 21:47.58 | 1:20.42 | 98083 | 104124
    10 | 23:08.25 | 0:37.33 | 104125 | 106932
    11 | 23:45.58 | 1:44.24 | 106933 | 114756
    12 | 25:30.07 | 0:54.50 | 114757 | 118856
    13 | 26:24.57 | 0:37.31 | 118857 | 121662
    14 | 27:02.13 | 0:52.03 | 121663 | 125565
    15 | 27:54.16 | 1:13.48 | 125566 | 131088
    16 | 29:07.64 | 0:55.50 | 131089 | 135263
    17 | 30:03.39 | 1:18.57 | 135264 | 141170
    18 | 31:22.21 | 1:14.01 | 141171 | 146721
    19 | 32:36.22 | 1:11.08 | 146722 | 152054
    20 | 33:47.30 | 1:16.29 | 152055 | 157783
    21 | 35:03.59 | 3:11.45 | 157784 | 172153
    22 | 38:15.29 | 2:36.04 | 172154 | 183857
    23 | 40:51.33 | 2:17.17 | 183858 | 194149
    24 | 43:08.50 | 2:59.41 | 194150 | 207615
    25 | 46:08.16 | 1:50.28 | 207616 | 215893
    26 | 47:58.44 | 1:35.25 | 215894 | 223043
    27 | 49:33.69 | 0:58.65 | 223044 | 227458

    Характеристики диапазона извлечения и сообщения об ошибках

    Выбранный диапазон

    Имя файла C:\Users\Женя\Desktop\Церковний хор Видубичі\Церковний хор Видубичі - Хваліте Господа з небес (1993)\Церковний хор Видубичі - Хваліте Господа з небес.wav

    Пиковый уровень 100.0 %
    Качество диапазона 99.9 %
    CRC теста F2403AE6
    CRC копии F2403AE6
    Копирование... OK

    Ошибок не произошло

    AccurateRip: сводка

    Трек 1 нет в базе данных
    Трек 2 нет в базе данных
    Трек 3 нет в базе данных
    Трек 4 нет в базе данных
    Трек 5 нет в базе данных
    Трек 6 нет в базе данных
    Трек 7 нет в базе данных
    Трек 8 нет в базе данных
    Трек 9 нет в базе данных
    Трек 10 нет в базе данных
    Трек 11 нет в базе данных
    Трек 12 нет в базе данных
    Трек 13 нет в базе данных
    Трек 14 нет в базе данных
    Трек 15 нет в базе данных
    Трек 16 нет в базе данных
    Трек 17 нет в базе данных
    Трек 18 нет в базе данных
    Трек 19 нет в базе данных
    Трек 20 нет в базе данных
    Трек 21 нет в базе данных
    Трек 22 нет в базе данных
    Трек 23 нет в базе данных
    Трек 24 нет в базе данных
    Трек 25 нет в базе данных
    Трек 26 нет в базе данных
    Трек 27 нет в базе данных

    Ни одного трека нет в базе AccurateRip

    Конец отчёта
    Тривалість: 00:50:32
    Аудіо-кодек: FLAC
    Мова: українська
    Видавець: Taras Bulba Entertainment
    1995 - Воскресіння Твоє Cлавимо! (Українська духовна музика)

    1. Хресту твоєму (2:52)
    2. Нехай повні будуть уста наші (1:54)
    3. Кант Розп'яттю Христовому (3:57)
    4. Достойно є (1:35)
    5. Розбійника благорозумного (1:48)
    6. Ірмоси Покаянного Великопостного канону св. Андрія Критського (4:39)
    7. Єдинородний Сину (2:16)
    8. Нині відпускаєш (2:40)
    9. Милість спокою (5:47)
    10. Чашу спасіння (2:52)
    11. В пам'ять вічну буде праведник (2:56)
    12. Молитву пролію (2:57)
    13. Бог Богів (1:48)
    14. Хваліте Господа з небес (1:06)
    15. Кант ''Мати милосердна'' (2:00)
    16. Кант ''Похвалу принесу'' (1:56)
    17. Христос Воскрес (0:37)
    18. Алилуя (0:51)
    19. Тілом заснув (1:54)
    20. Ірмоси Пасхального канону (8:30)
    21. Христос Воскрес (0:37)
    22. Молитва за Україну (2:36)
    EAC Log
    Exact Audio Copy V0.99 prebeta 5 from 4. May 2009

    Отчёт EAC об извлечении, выполненном 4. марта 2010, 13:11

    Церковний хор Видубичі / Воскресіння Твоє славимо! (Українська духовна музика)

    Дисковод: PIONEER DVD-RW DVR-111D Adapter: 0 ID: 0

    Режим чтения : Достоверность
    Использование точного потока : Да
    Отключение кэша аудио : Да
    Использование указателей C2 : Нет

    Коррекция смещения при чтении : 48
    Способность читать области Lead-in и Lead-out : Нет
    Заполнение пропущенных сэмплов тишиной : Да
    Удаление блоков с тишиной в начале и конце : Нет
    При вычислениях CRC использовались нулевые сэмплы : Да
    Интерфейс : Встроенный Win32-интерфейс для Win NT/2000

    Выходной формат : Внутренние WAV-операции
    Формат сэмплов : 44.100 Гц; 16 бит; стерео

    TOC извлечённого CD

    Трек | Старт | Длительность | Начальный сектор | Конечный сектор
    ---------------------------------------------------------------------
    1 | 0:00.32 | 2:55.48 | 32 | 13204
    2 | 2:56.05 | 1:54.07 | 13205 | 21761
    3 | 4:50.12 | 3:57.33 | 21762 | 39569
    4 | 8:47.45 | 1:36.05 | 39570 | 46774
    5 | 10:23.50 | 1:47.55 | 46775 | 54854
    6 | 12:11.30 | 4:39.50 | 54855 | 75829
    7 | 16:51.05 | 2:16.45 | 75830 | 86074
    8 | 19:07.50 | 2:39.67 | 86075 | 98066
    9 | 21:47.42 | 5:47.23 | 98067 | 124114
    10 | 27:34.65 | 2:52.57 | 124115 | 137071
    11 | 30:27.47 | 2:56.65 | 137072 | 150336
    12 | 33:24.37 | 2:57.45 | 150337 | 163656
    13 | 36:22.07 | 1:48.60 | 163657 | 171816
    14 | 38:10.67 | 1:06.40 | 171817 | 176806
    15 | 39:17.32 | 2:00.60 | 176807 | 185866
    16 | 41:18.17 | 1:56.50 | 185867 | 194616
    17 | 43:14.67 | 0:35.68 | 194617 | 197309
    18 | 43:50.60 | 0:52.30 | 197310 | 201239
    19 | 44:43.15 | 1:54.67 | 201240 | 209856
    20 | 46:38.07 | 8:30.65 | 209857 | 248171
    21 | 55:08.72 | 0:37.03 | 248172 | 250949
    22 | 55:46.00 | 2:32.32 | 250950 | 262381

    Характеристики диапазона извлечения и сообщения об ошибках

    Выбранный диапазон

    Имя файла C:\Documents and Settings\Владелец\Рабочий стол\Церковний хор Видубичі - Воскресіння Твоє славимо! (Українська духовна музика) (1995)\Церковний хор Видубичі - Воскресіння Твоє славимо! (Українська духовна музика).wav

    Пиковый уровень 99.0 %
    Качество диапазона 100.0 %
    CRC теста CEA94DFF
    CRC копии CEA94DFF
    Копирование... OK

    Ошибок не произошло

    AccurateRip: сводка

    Трек 1 нет в базе данных
    Трек 2 нет в базе данных
    Трек 3 нет в базе данных
    Трек 4 нет в базе данных
    Трек 5 нет в базе данных
    Трек 6 нет в базе данных
    Трек 7 нет в базе данных
    Трек 8 нет в базе данных
    Трек 9 нет в базе данных
    Трек 10 нет в базе данных
    Трек 11 нет в базе данных
    Трек 12 нет в базе данных
    Трек 13 нет в базе данных
    Трек 14 нет в базе данных
    Трек 15 нет в базе данных
    Трек 16 нет в базе данных
    Трек 17 нет в базе данных
    Трек 18 нет в базе данных
    Трек 19 нет в базе данных
    Трек 20 нет в базе данных
    Трек 21 нет в базе данных
    Трек 22 нет в базе данных

    Ни одного трека нет в базе AccurateRip

    Конец отчёта
    Тривалість: 00:58:18
    Аудіо-кодек: FLAC
    Мова: українська
    Видавець: Симфокаре
    1996 - Свята ніч (Українські різдвяні піснеспіви)

    1. Київські дзвони собору святого Володимира (1:43)
    2. З нами Бог (3:06)
    3. Все сьогодні сповнилося радістю (1:21)
    4. Рождество Твоє, Христе Боже наш (1:26)
    5. Днесь Христос народився (6:13)
    6. Ой, не спіть, та добрії люде (0:42)
    7. Віншування (0:32)
    8. Добрий вечір тобі, пане господарю (2:23)
    9. Бог Предвічний народився (2:43)
    10. Небо і Земля нині торжествують (2:08)
    11. Нова радість стала (2:20)
    12. Віншування на мелодії "Во Віфлеємі" (1:07)
    13. Бог ся рождає (1:49)
    14. Тиха ніч (3:29)
    15. По всьому світу стала новина (2:02)
    16. Не плач, Рахиле (2:32)
    17. На небі зірка ясна засяяла (1:35)
    18. Щедрування на мелодії "Щедрик" (1:49)
    19. Щедрівка (1:03)
    20. Павочка ходить (1:41)
    21. Ой, на річці, на Йордані (1:27)
    22. А в Єрусалимі дзвони задзвонили (2:50)
    EAC log
    Exact Audio Copy V0.99 prebeta 5 from 4. May 2009

    Отчёт EAC об извлечении, выполненном 4. марта 2010, 10:37

    Церковний хор Видубичі / Свята ніч (Українські різдвяні піснеспіви)

    Дисковод: PIONEER DVD-RW DVR-111D Adapter: 0 ID: 0

    Режим чтения : Достоверность
    Использование точного потока : Да
    Отключение кэша аудио : Да
    Использование указателей C2 : Нет

    Коррекция смещения при чтении : 48
    Способность читать области Lead-in и Lead-out : Нет
    Заполнение пропущенных сэмплов тишиной : Да
    Удаление блоков с тишиной в начале и конце : Нет
    При вычислениях CRC использовались нулевые сэмплы : Да
    Интерфейс : Встроенный Win32-интерфейс для Win NT/2000

    Выходной формат : Внутренние WAV-операции
    Формат сэмплов : 44.100 Гц; 16 бит; стерео

    TOC извлечённого CD

    Трек | Старт | Длительность | Начальный сектор | Конечный сектор
    ---------------------------------------------------------------------
    1 | 0:00.00 | 1:43.01 | 0 | 7725
    2 | 1:43.01 | 3:06.70 | 7726 | 21745
    3 | 4:49.71 | 1:21.38 | 21746 | 27858
    4 | 6:11.34 | 1:26.49 | 27859 | 34357
    5 | 7:38.08 | 6:13.10 | 34358 | 62342
    6 | 13:51.18 | 0:42.59 | 62343 | 65551
    7 | 14:34.02 | 0:32.56 | 65552 | 68007
    8 | 15:06.58 | 2:23.34 | 68008 | 78766
    9 | 17:30.17 | 2:43.03 | 78767 | 90994
    10 | 20:13.20 | 2:08.42 | 90995 | 100636
    11 | 22:21.62 | 2:20.55 | 100637 | 111191
    12 | 24:42.42 | 1:07.69 | 111192 | 116285
    13 | 25:50.36 | 1:49.65 | 116286 | 124525
    14 | 27:40.26 | 3:29.63 | 124526 | 140263
    15 | 31:10.14 | 2:02.74 | 140264 | 149487
    16 | 33:13.13 | 2:32.48 | 149488 | 160935
    17 | 35:45.61 | 1:35.16 | 160936 | 168076
    18 | 37:21.02 | 1:49.38 | 168077 | 176289
    19 | 39:10.40 | 1:03.62 | 176290 | 181076
    20 | 40:14.27 | 1:41.38 | 181077 | 188689
    21 | 41:55.65 | 1:27.37 | 188690 | 195251
    22 | 43:23.27 | 2:50.74 | 195252 | 208075

    Характеристики диапазона извлечения и сообщения об ошибках

    Выбранный диапазон

    Имя файла C:\Documents and Settings\Владелец\Рабочий стол\Церковний хор Видубичі - Свята ніч (Українські різдвяні піснеспіви) (1996)\Церковний хор Видубичі - Свята ніч (Українські різдвяні піснеспіви).wav

    Пиковый уровень 100.0 %
    Качество диапазона 100.0 %
    CRC теста 597B3B2A
    CRC копии 597B3B2A
    Копирование... OK

    Ошибок не произошло

    AccurateRip: сводка

    Трек 1 нет в базе данных
    Трек 2 нет в базе данных
    Трек 3 нет в базе данных
    Трек 4 нет в базе данных
    Трек 5 нет в базе данных
    Трек 6 нет в базе данных
    Трек 7 нет в базе данных
    Трек 8 нет в базе данных
    Трек 9 нет в базе данных
    Трек 10 нет в базе данных
    Трек 11 нет в базе данных
    Трек 12 нет в базе данных
    Трек 13 нет в базе данных
    Трек 14 нет в базе данных
    Трек 15 нет в базе данных
    Трек 16 нет в базе данных
    Трек 17 нет в базе данных
    Трек 18 нет в базе данных
    Трек 19 нет в базе данных
    Трек 20 нет в базе данных
    Трек 21 нет в базе данных
    Трек 22 нет в базе данных

    Ни одного трека нет в базе AccurateRip

    Конец отчёта
    Тривалість: 00:46:14
    Аудіо-кодек: FLAC
    Мова: українська
    Видавець: Taras Bulba Entertainment
    1998 - Божественна Літургія св. Івана Золотоустого (Молитву проллю)

    1. Літургія Оглашених (16:32)
    2. Малий Вхід (16:15)
    3. Літургія Вірних (23:17)
    4. Отче наш. Причастя. Відпуст (20:38)
    EAC log
    Exact Audio Copy V0.99 prebeta 5 from 4. May 2009

    Отчёт EAC об извлечении, выполненном 5. марта 2010, 9:45

    Церковний хор Видубичі / Божественна Літургія св. Івана Золотоустого (Молитву проллю)

    Дисковод: PIONEER DVD-RW DVR-111D Adapter: 0 ID: 0

    Режим чтения : Достоверность
    Использование точного потока : Да
    Отключение кэша аудио : Да
    Использование указателей C2 : Нет

    Коррекция смещения при чтении : 48
    Способность читать области Lead-in и Lead-out : Нет
    Заполнение пропущенных сэмплов тишиной : Да
    Удаление блоков с тишиной в начале и конце : Нет
    При вычислениях CRC использовались нулевые сэмплы : Да
    Интерфейс : Встроенный Win32-интерфейс для Win NT/2000

    Выходной формат : Внутренние WAV-операции
    Формат сэмплов : 44.100 Гц; 16 бит; стерео

    TOC извлечённого CD

    Трек | Старт | Длительность | Начальный сектор | Конечный сектор
    ---------------------------------------------------------------------
    1 | 0:00.00 | 16:32.37 | 0 | 74436
    2 | 16:32.37 | 16:15.70 | 74437 | 147631
    3 | 32:48.32 | 23:17.50 | 147632 | 252456
    4 | 56:06.07 | 20:38.58 | 252457 | 345364

    Характеристики диапазона извлечения и сообщения об ошибках

    Выбранный диапазон

    Имя файла C:\Documents and Settings\Владелец\Рабочий стол\Церковний хор Видубичі\Церковний хор Видубичі - Божественна Літургія св. Івана Золотоустого (Молитву проллю) (1998)\Церковний хор Видубичі - Божественна Літургія св. Івана Золотоустого (Молитву

    Пиковый уровень 100.0 %
    Качество диапазона 100.0 %
    CRC теста 95E8C5D0
    CRC копии 95E8C5D0
    Копирование... OK

    Ошибок не произошло

    AccurateRip: сводка

    Трек 1 нет в базе данных
    Трек 2 нет в базе данных
    Трек 3 нет в базе данных
    Трек 4 нет в базе данных

    Ни одного трека нет в базе AccurateRip

    Конец отчёта
    Тривалість: 01:16:44
    Аудіо-кодек: FLAC
    Мова: українська
    Видавець: Taras Bulba Entertainment
    1998 - Я полетіла б на Україну

    1. Бог Богів (1:50)
    2. Вірую, Господи (2:43)
    3. Радуйтеся, праведні (1:25)
    4. Святий Боже (3:26)
    5. Нехай стане молитва моя (9:05)
    6. Христос Воскрес (1:57)
    7. Ангел вітав (1:24)
    8. Скорбная Мати (3:57)
    9. Пречистая Діво (4:19)
    10. Богородице, Діво, радуйся (1:21)
    11. Взирай с приліжанієм (2:53)
    12. В гаю зелененькім (2:00)
    13. Ой, вербо, вербо (3:31)
    14. Дам я яловицю (2:18)
    15. Ой попливи вутко (3:28)
    16. Місяць на небі (2:50)
    17. Ішла Марина (2:37)
    18. Чи я в лузі не калина була (2:21)
    19. Чарівна скрипка (3:13)
    20. Якби я мала крила орлині (2:57)
    EAC log
    Exact Audio Copy V0.99 prebeta 5 from 4. May 2009

    Отчёт EAC об извлечении, выполненном 4. марта 2010, 7:46

    Церковний хор Видубичі / Я полетіла б на Україну

    Дисковод: Optiarc DVD RW AD-7173S Adapter: 5 ID: 0

    Режим чтения : Достоверность
    Использование точного потока : Да
    Отключение кэша аудио : Да
    Использование указателей C2 : Нет

    Коррекция смещения при чтении : 48
    Способность читать области Lead-in и Lead-out : Нет
    Заполнение пропущенных сэмплов тишиной : Да
    Удаление блоков с тишиной в начале и конце : Нет
    При вычислениях CRC использовались нулевые сэмплы : Да
    Интерфейс : Встроенный Win32-интерфейс для Win NT/2000

    Выходной формат : Внутренние WAV-операции
    Формат сэмплов : 44.100 Гц; 16 бит; стерео

    TOC извлечённого CD

    Трек | Старт | Длительность | Начальный сектор | Конечный сектор
    ---------------------------------------------------------------------
    1 | 0:02.00 | 1:48.16 | 150 | 8265
    2 | 1:50.16 | 2:43.53 | 8266 | 20543
    3 | 4:33.69 | 1:25.27 | 20544 | 26945
    4 | 5:59.21 | 3:26.66 | 26946 | 42461
    5 | 9:26.12 | 9:05.56 | 42462 | 83392
    6 | 18:31.68 | 1:57.09 | 83393 | 92176
    7 | 20:29.02 | 1:24.57 | 92177 | 98533
    8 | 21:53.59 | 3:57.72 | 98534 | 116380
    9 | 25:51.56 | 4:19.28 | 116381 | 135833
    10 | 30:11.09 | 1:21.46 | 135834 | 141954
    11 | 31:32.55 | 2:53.12 | 141955 | 154941
    12 | 34:25.67 | 2:00.22 | 154942 | 163963
    13 | 36:26.14 | 3:31.52 | 163964 | 179840
    14 | 39:57.66 | 2:18.01 | 179841 | 190191
    15 | 42:15.67 | 3:28.67 | 190192 | 205858
    16 | 45:44.59 | 2:51.00 | 205859 | 218683
    17 | 48:35.59 | 2:37.00 | 218684 | 230458
    18 | 51:12.59 | 2:21.15 | 230459 | 241048
    19 | 53:33.74 | 3:13.63 | 241049 | 255586
    20 | 56:47.62 | 2:57.16 | 255587 | 268877

    Характеристики диапазона извлечения и сообщения об ошибках

    Выбранный диапазон

    Имя файла C:\Users\Женя\Desktop\Церковний хор Видубичі\Церковний хор Видубичі - Я полетіла б на Україну (1998)\Церковний хор Видубичі - Я полетіла б на Україну.wav

    Пиковый уровень 100.0 %
    Качество диапазона 100.0 %
    CRC теста 2F48D696
    CRC копии 2F48D696
    Копирование... OK

    Ошибок не произошло

    AccurateRip: сводка

    Трек 1 нет в базе данных
    Трек 2 нет в базе данных
    Трек 3 нет в базе данных
    Трек 4 нет в базе данных
    Трек 5 нет в базе данных
    Трек 6 нет в базе данных
    Трек 7 нет в базе данных
    Трек 8 нет в базе данных
    Трек 9 нет в базе данных
    Трек 10 нет в базе данных
    Трек 11 нет в базе данных
    Трек 12 нет в базе данных
    Трек 13 нет в базе данных
    Трек 14 нет в базе данных
    Трек 15 нет в базе данных
    Трек 16 нет в базе данных
    Трек 17 нет в базе данных
    Трек 18 нет в базе данных
    Трек 19 нет в базе данных
    Трек 20 нет в базе данных

    Ни одного трека нет в базе AccurateRip

    Конец отчёта
    Тривалість: 00:59:45
    Аудіо-кодек: FLAC
    Мова: українська
    Видавець: Taras Bulba Entertainment
    2001 - Хваліть Ім'я Господнє

    1. Отче наш (2:04)
    2. Символ Віри (3:36)
    3. Ангел вітав (4:20)
    4. У Царстві Твоїм (2:41)
    5. Єдинородний Сину (2:23)
    6. Трисвяте (2:24)
    7. Хваліть ім'я Господнє (2:38)
    8. Сподоби Господи (Києво-Печерський наспів) (2:34)
    9. Світе тихий (3:04)
    10. Голосом моїм (6:04)
    11. Ізбави от бід (1:54)
    12. Бог Господь (4:05)
    13. Помилуй мене Боже (7:14)
    14. Через поле широке (3:30)
    15. Що то за предиво (3:45)
    16. Многая літа (1:23)
    EAC log
    Exact Audio Copy V0.99 prebeta 5 from 4. May 2009

    Отчёт EAC об извлечении, выполненном 3. марта 2010, 23:02

    Церковний хор "Видубичі" / Хваліть Ім'я Господнє

    Дисковод: Optiarc DVD RW AD-7173S Adapter: 5 ID: 0

    Режим чтения : Достоверность
    Использование точного потока : Да
    Отключение кэша аудио : Да
    Использование указателей C2 : Нет

    Коррекция смещения при чтении : 48
    Способность читать области Lead-in и Lead-out : Нет
    Заполнение пропущенных сэмплов тишиной : Да
    Удаление блоков с тишиной в начале и конце : Нет
    При вычислениях CRC использовались нулевые сэмплы : Да
    Интерфейс : Встроенный Win32-интерфейс для Win NT/2000

    Выходной формат : Внутренние WAV-операции
    Формат сэмплов : 44.100 Гц; 16 бит; стерео

    TOC извлечённого CD

    Трек | Старт | Длительность | Начальный сектор | Конечный сектор
    ---------------------------------------------------------------------
    1 | 0:00.00 | 2:06.00 | 0 | 9449
    2 | 2:06.00 | 3:36.30 | 9450 | 25679
    3 | 5:42.30 | 4:20.29 | 25680 | 45208
    4 | 10:02.59 | 2:41.46 | 45209 | 57329
    5 | 12:44.30 | 2:23.10 | 57330 | 68064
    6 | 15:07.40 | 2:24.05 | 68065 | 78869
    7 | 17:31.45 | 2:38.44 | 78870 | 90763
    8 | 20:10.14 | 2:34.54 | 90764 | 102367
    9 | 22:44.68 | 3:04.43 | 102368 | 116210
    10 | 25:49.36 | 6:04.08 | 116211 | 143518
    11 | 31:53.44 | 1:54.45 | 143519 | 152113
    12 | 33:48.14 | 4:05.58 | 152114 | 170546
    13 | 37:53.72 | 7:14.08 | 170547 | 203104
    14 | 45:08.05 | 3:30.62 | 203105 | 218916
    15 | 48:38.67 | 3:45.62 | 218917 | 235853
    16 | 52:24.54 | 1:21.06 | 235854 | 241934

    Характеристики диапазона извлечения и сообщения об ошибках

    Выбранный диапазон

    Имя файла C:\Users\Женя\Desktop\Церковний хор Видубичі\Церковний хор Видубичі - Хваліть Ім'я Господнє (2001)\Церковний хор Видубичі - Хваліть Ім'я Господнє.wav

    Пиковый уровень 96.0 %
    Качество диапазона 100.0 %
    CRC теста CEBB64FE
    CRC копии CEBB64FE
    Копирование... OK

    Ошибок не произошло

    AccurateRip: сводка

    Трек 1 нет в базе данных
    Трек 2 нет в базе данных
    Трек 3 нет в базе данных
    Трек 4 нет в базе данных
    Трек 5 нет в базе данных
    Трек 6 нет в базе данных
    Трек 7 нет в базе данных
    Трек 8 нет в базе данных
    Трек 9 нет в базе данных
    Трек 10 нет в базе данных
    Трек 11 нет в базе данных
    Трек 12 нет в базе данных
    Трек 13 нет в базе данных
    Трек 14 нет в базе данных
    Трек 15 нет в базе данных
    Трек 16 нет в базе данных

    Ни одного трека нет в базе AccurateRip

    Конец отчёта
    Тривалість: 00:53:45
    Аудіо-кодек: FLAC
    Мова: українська
    Видавець: Taras Bulba Entertainment
    2003 - Літургія №2 (св. Івана Золотоустого) (композитор Роман Гурко)

    1. Велика Ектенія (4:48)
    2. Благослови, душе моя, Господа (2:14)
    3. Мала Ектенія (1:23)
    4. Хвали, душе моя, Господа (1:10)
    5. Слава... Єдинородний Сину (2:25)
    6. Мала Ектенія (1:30)
    7. Блаженні (2:47)
    8. Прийдіте, поклонімся (1:06)
    9. Святий Боже (3:36)
    10. Алилуя (1:04)
    11. Євангеліє (0:31)
    12. Ектенія сугуба. Ектенія вірних (3:39)
    13. Ми Херувимів (3:19)
    14. Вірую (8:38)
    15. Милість миру (2:24)
    16. Свят (1:52)
    17. Амінь (Освячення) (1:10)
    18. Тебе оспівуємо (2:02)
    19. Достойно є (1:43)
    20. Отче наш (3:20)
    21. Єдин Свят (1:54)
    22. Благословен, хто йде в ім'я Господнє (0:24)
    23. Ми виділи Світло (0:41)
    24. Нехай Сповняться (1:26)
    25. Будь Ім'я Господнє (1:00)
    26. Відпуст (1:09)
    27. Амінь (1:04)
    28. Ангел вопіяше (2:26)
    29. Богородице Діво (2:20)
    30. Світе тихий (2:26)
    EAC log
    Exact Audio Copy V0.99 prebeta 5 from 4. May 2009

    Отчёт EAC об извлечении, выполненном 4. марта 2010, 17:50

    Церковний хор Видубичі / Літургія №2 (св. Івана Золотоустого) (композитор Роман Гурко)

    Дисковод: PIONEER DVD-RW DVR-111D Adapter: 0 ID: 0

    Режим чтения : Достоверность
    Использование точного потока : Да
    Отключение кэша аудио : Да
    Использование указателей C2 : Нет

    Коррекция смещения при чтении : 48
    Способность читать области Lead-in и Lead-out : Нет
    Заполнение пропущенных сэмплов тишиной : Да
    Удаление блоков с тишиной в начале и конце : Нет
    При вычислениях CRC использовались нулевые сэмплы : Да
    Интерфейс : Встроенный Win32-интерфейс для Win NT/2000

    Выходной формат : Внутренние WAV-операции
    Формат сэмплов : 44.100 Гц; 16 бит; стерео

    TOC извлечённого CD

    Трек | Старт | Длительность | Начальный сектор | Конечный сектор
    ---------------------------------------------------------------------
    1 | 0:00.00 | 4:48.56 | 0 | 21655
    2 | 4:48.56 | 2:14.63 | 21656 | 31768
    3 | 7:03.44 | 1:23.34 | 31769 | 38027
    4 | 8:27.03 | 1:10.03 | 38028 | 43280
    5 | 9:37.06 | 2:25.64 | 43281 | 54219
    6 | 12:02.70 | 1:30.29 | 54220 | 60998
    7 | 13:33.24 | 2:47.59 | 60999 | 73582
    8 | 16:21.08 | 1:06.59 | 73583 | 78591
    9 | 17:27.67 | 3:36.26 | 78592 | 94817
    10 | 21:04.18 | 1:04.47 | 94818 | 99664
    11 | 22:08.65 | 0:31.66 | 99665 | 102055
    12 | 22:40.56 | 3:39.48 | 102056 | 118528
    13 | 26:20.29 | 3:19.18 | 118529 | 133471
    14 | 29:39.47 | 8:38.05 | 133472 | 172326
    15 | 38:17.52 | 2:24.04 | 172327 | 183130
    16 | 40:41.56 | 1:52.61 | 183131 | 191591
    17 | 42:34.42 | 1:10.48 | 191592 | 196889
    18 | 43:45.15 | 2:02.07 | 196890 | 206046
    19 | 45:47.22 | 1:43.54 | 206047 | 213825
    20 | 47:31.01 | 3:20.17 | 213826 | 228842
    21 | 50:51.18 | 1:54.60 | 228843 | 237452
    22 | 52:46.03 | 0:24.44 | 237453 | 239296
    23 | 53:10.47 | 0:41.13 | 239297 | 242384
    24 | 53:51.60 | 1:26.57 | 242385 | 248891
    25 | 55:18.42 | 1:00.29 | 248892 | 253420
    26 | 56:18.71 | 1:09.23 | 253421 | 258618
    27 | 57:28.19 | 1:04.57 | 258619 | 263475
    28 | 58:33.01 | 2:26.26 | 263476 | 274451
    29 | 60:59.27 | 2:20.42 | 274452 | 284993
    30 | 63:19.69 | 2:26.44 | 284994 | 295987

    Характеристики диапазона извлечения и сообщения об ошибках

    Выбранный диапазон

    Имя файла C:\Documents and Settings\Владелец\Рабочий стол\Церковний хор Видубичі\Церковний хор Видубичі - Літургія №2 (св. Івана Золотоустого) (композитор Роман Гурко) (2003)\Церковний хор Видубичі - Літургія №2 (св. Івана Золотоустого) (композитор Ром

    Пиковый уровень 100.0 %
    Качество диапазона 99.9 %
    CRC теста 101A6276
    CRC копии 101A6276
    Копирование... OK

    Ошибок не произошло

    AccurateRip: сводка

    Трек 1 нет в базе данных
    Трек 2 нет в базе данных
    Трек 3 нет в базе данных
    Трек 4 нет в базе данных
    Трек 5 нет в базе данных
    Трек 6 нет в базе данных
    Трек 7 нет в базе данных
    Трек 8 нет в базе данных
    Трек 9 нет в базе данных
    Трек 10 нет в базе данных
    Трек 11 нет в базе данных
    Трек 12 нет в базе данных
    Трек 13 нет в базе данных
    Трек 14 нет в базе данных
    Трек 15 нет в базе данных
    Трек 16 нет в базе данных
    Трек 17 нет в базе данных
    Трек 18 нет в базе данных
    Трек 19 нет в базе данных
    Трек 20 нет в базе данных
    Трек 21 нет в базе данных
    Трек 22 нет в базе данных
    Трек 23 нет в базе данных
    Трек 24 нет в базе данных
    Трек 25 нет в базе данных
    Трек 26 нет в базе данных
    Трек 27 нет в базе данных
    Трек 28 нет в базе данных
    Трек 29 нет в базе данных
    Трек 30 нет в базе данных

    Ни одного трека нет в базе AccurateRip

    Конец отчёта
    Тривалість: 01:05:46
    Аудіо-кодек: FLAC
    Мова: українська
    Видавець: Taras Bulba Entertainment
    2003 - Золоте перевесло (Українські народні піснеспіви)

    1. В гаю зелененькім (2:11)
    2. Дам я яловицю (2:10)
    3. Ой, дуб, дуба (1:46)
    4. Як ішов я з Дебречина (2:48)
    5. На Івана Купала (2:51)
    6. Ішла Марина (2:36)
    7. Била мене мати (2:04)
    8. Невдале залицяння (7:13)
    9. Порізала пальчик (2:28)
    10. Ой вербо, вербо (3:26)
    11. Бандуристе орле сизий (4:27)
    12. Бодай ся когут знудив (2:08)
    13. Діброва зелена (3:12)
    14. Коломийки (3:18)
    15. Коло млина, коло броду (2:51)
    16. Місяць на небі (2:48)
    17. Ой зійшла зоря (3:39)
    18. Многії літа (0:45)
    EAC log
    Exact Audio Copy V0.99 prebeta 5 from 4. May 2009

    Отчёт EAC об извлечении, выполненном 4. марта 2010, 12:24

    Церковний хор Видубичі / Золоте перевесло (Українські народні піснеспіви)

    Дисковод: PIONEER DVD-RW DVR-111D Adapter: 0 ID: 0

    Режим чтения : Достоверность
    Использование точного потока : Да
    Отключение кэша аудио : Да
    Использование указателей C2 : Нет

    Коррекция смещения при чтении : 48
    Способность читать области Lead-in и Lead-out : Нет
    Заполнение пропущенных сэмплов тишиной : Да
    Удаление блоков с тишиной в начале и конце : Нет
    При вычислениях CRC использовались нулевые сэмплы : Да
    Интерфейс : Встроенный Win32-интерфейс для Win NT/2000

    Выходной формат : Внутренние WAV-операции
    Формат сэмплов : 44.100 Гц; 16 бит; стерео

    TOC извлечённого CD

    Трек | Старт | Длительность | Начальный сектор | Конечный сектор
    ---------------------------------------------------------------------
    1 | 0:00.00 | 2:14.72 | 0 | 10121
    2 | 2:14.72 | 2:10.72 | 10122 | 19943
    3 | 4:25.69 | 1:46.49 | 19944 | 27942
    4 | 6:12.43 | 2:48.39 | 27943 | 40581
    5 | 9:01.07 | 2:51.25 | 40582 | 53431
    6 | 11:52.32 | 2:36.43 | 53432 | 65174
    7 | 14:29.00 | 2:04.30 | 65175 | 74504
    8 | 16:33.30 | 7:13.64 | 74505 | 107043
    9 | 23:47.19 | 2:28.12 | 107044 | 118155
    10 | 26:15.31 | 3:26.53 | 118156 | 133658
    11 | 29:42.09 | 4:27.70 | 133659 | 153753
    12 | 34:10.04 | 2:08.28 | 153754 | 163381
    13 | 36:18.32 | 3:12.04 | 163382 | 177785
    14 | 39:30.36 | 3:18.59 | 177786 | 192694
    15 | 42:49.20 | 2:51.63 | 192695 | 205582
    16 | 45:41.08 | 2:48.73 | 205583 | 218255
    17 | 48:30.06 | 3:39.54 | 218256 | 234734
    18 | 52:09.60 | 0:42.61 | 234735 | 237945

    Характеристики диапазона извлечения и сообщения об ошибках

    Выбранный диапазон

    Имя файла C:\Documents and Settings\Владелец\Рабочий стол\Церковний хор Видубичі - Золоте перевесло (Українські народні піснеспіви) (2003)\Церковний хор Видубичі - Золоте перевесло (Українські народні піснеспіви).wav

    Пиковый уровень 100.0 %
    Качество диапазона 100.0 %
    CRC теста 40A7D050
    CRC копии 40A7D050
    Копирование... OK

    Ошибок не произошло

    AccurateRip: сводка

    Трек 1 нет в базе данных
    Трек 2 нет в базе данных
    Трек 3 нет в базе данных
    Трек 4 нет в базе данных
    Трек 5 нет в базе данных
    Трек 6 нет в базе данных
    Трек 7 нет в базе данных
    Трек 8 нет в базе данных
    Трек 9 нет в базе данных
    Трек 10 нет в базе данных
    Трек 11 нет в базе данных
    Трек 12 нет в базе данных
    Трек 13 нет в базе данных
    Трек 14 нет в базе данных
    Трек 15 нет в базе данных
    Трек 16 нет в базе данных
    Трек 17 нет в базе данных
    Трек 18 нет в базе данных

    Ни одного трека нет в базе AccurateRip

    Конец отчёта
    Тривалість: 00:52:52
    Аудіо-кодек: FLAC
    Мова: українська
    Видавець: Taras Bulba Entertainment
    2005 - Вечірня (композитор Роман Гурко)

    1. Прійдіте, поклонімся (1:47)
    2. Благослови, душе моя, Господа (Псалом 103) (3:12)
    3. Єктенія Великая (3:56)
    4. Блажен муж (4:10)
    5. Єктенія малая (1:35)
    6. Господи, воззвах к тєбє (Псалом 140) (4:42)
    7. Свєтє тихій (2:58)
    8. Прокімен в суботу вечір (1:58)
    9. Єктенія сугубая (2:38)
    10. Сподоби, Господи (3:16)
    11. Єктенія просітєльная (3:40)
    12. Нині отпущаєши (2:39)
    13. Богородіце дєво, радуйся (2:29)
    14. Буди імя Господнє (0:41)
    15. Окончаніє (2:43)
    16. Царю небесний (2:45)
    17. Да исправится молитва моя (Літургія прєждєосвященних) (3:53)
    18. Пєснь до воздвіженія чтєсного креста (2:58)
    19. Irmos of the Ninth Ode for the Exaltation of the Cross (Tone 8) (3:47)
    EAC log

    Exact Audio Copy V0.99 prebeta 5 from 4. May 2009

    Отчёт EAC об извлечении, выполненном 3. марта 2010, 23:37

    Церковний хор "Видубичі" / Вечірня (композитор Роман Гурко)

    Дисковод: Optiarc DVD RW AD-7173S Adapter: 5 ID: 0

    Режим чтения : Достоверность
    Использование точного потока : Да
    Отключение кэша аудио : Да
    Использование указателей C2 : Нет

    Коррекция смещения при чтении : 48
    Способность читать области Lead-in и Lead-out : Нет
    Заполнение пропущенных сэмплов тишиной : Да
    Удаление блоков с тишиной в начале и конце : Нет
    При вычислениях CRC использовались нулевые сэмплы : Да
    Интерфейс : Встроенный Win32-интерфейс для Win NT/2000

    Выходной формат : Внутренние WAV-операции
    Формат сэмплов : 44.100 Гц; 16 бит; стерео

    TOC извлечённого CD

    Трек | Старт | Длительность | Начальный сектор | Конечный сектор
    ---------------------------------------------------------------------
    1 | 0:00.00 | 1:47.02 | 0 | 8026
    2 | 1:47.02 | 3:12.33 | 8027 | 22459
    3 | 4:59.35 | 3:56.24 | 22460 | 40183
    4 | 8:55.59 | 4:10.69 | 40184 | 59002
    5 | 13:06.53 | 1:35.39 | 59003 | 66166
    6 | 14:42.17 | 4:42.02 | 66167 | 87318
    7 | 19:24.19 | 2:58.53 | 87319 | 100721
    8 | 22:22.72 | 1:58.19 | 100722 | 109590
    9 | 24:21.16 | 2:38.18 | 109591 | 121458
    10 | 26:59.34 | 3:16.58 | 121459 | 136216
    11 | 30:16.17 | 3:40.06 | 136217 | 152722
    12 | 33:56.23 | 2:39.21 | 152723 | 164668
    13 | 36:35.44 | 2:29.20 | 164669 | 175863
    14 | 39:04.64 | 0:41.39 | 175864 | 178977
    15 | 39:46.28 | 2:43.57 | 178978 | 191259
    16 | 42:30.10 | 2:45.13 | 191260 | 203647
    17 | 45:15.23 | 3:53.03 | 203648 | 221125
    18 | 49:08.26 | 2:58.34 | 221126 | 234509
    19 | 52:06.60 | 3:47.01 | 234510 | 251535

    Характеристики диапазона извлечения и сообщения об ошибках

    Выбранный диапазон

    Имя файла C:\Users\Женя\Desktop\Церковний хор Видубичі\Церковний хор Видубичі - Вечірня (композитор Роман Гурко) (2005)\Церковний хор Видубичі - Вечірня (композитор Роман Гурко).wav

    Пиковый уровень 100.0 %
    Качество диапазона 100.0 %
    CRC теста 881DB7C9
    CRC копии 881DB7C9
    Копирование... OK

    Ошибок не произошло

    AccurateRip: сводка

    Трек 1 нет в базе данных
    Трек 2 нет в базе данных
    Трек 3 нет в базе данных
    Трек 4 нет в базе данных
    Трек 5 нет в базе данных
    Трек 6 нет в базе данных
    Трек 7 нет в базе данных
    Трек 8 нет в базе данных
    Трек 9 нет в базе данных
    Трек 10 нет в базе данных
    Трек 11 нет в базе данных
    Трек 12 нет в базе данных
    Трек 13 нет в базе данных
    Трек 14 нет в базе данных
    Трек 15 нет в базе данных
    Трек 16 нет в базе данных
    Трек 17 нет в базе данных
    Трек 18 нет в базе данных
    Трек 19 нет в базе данных

    Ни одного трека нет в базе AccurateRip

    Конец отчёта
    Тривалість: 00:55:53
    Аудіо-кодек: FLAC
    Мова: українська(1,2,7,8,10,12,14,16), англійська(19), російська(3-6,9,11,13,15,17,18)
    Видавець: Taras Bulba Entertainment
    2008 - Бог Ся Рождає

    1. Київські дзвони собору святого Володимира (1:43)
    2. Бог ся рождає (1:48)
    3. Бог предвічний народився (2:42)
    4. З нами Бог (3:05)
    5. Все сьогодні сповнилося радістю (1:20)
    6. Рождество Твоє, Христе Боже наш (1:25)
    7. Днесь Христос народився (5:10)
    8. Київські дзвони (1:05)
    9. Ой, не спіть не спіть, та добрії люде (1:22)
    10. Що то за предиво (3:50)
    11. Три славнії царі (2:44)
    12. Віншування (0:31)
    13. Добрий вечір тобі, пане господарю (2:22)
    14. Нова радість стала (2:18)
    15. Небо і земля нині торжествують (2:09)
    16. Тиха ніч (3:28)
    17. Віншування на мелодії "Во Вифлеємі" (1:07)
    18. По всьому світу стала новина (2:02)
    19. Не плач Рахиле (2:32)
    20. На небі зірка ясна засяла (1:33)
    21. Щедрування на мелодії "Щедрик" (1:48)
    22. Щедрівка (1:02)
    23. Павочка ходить (1:40)
    24. Ой на річці на Йордані (1:26)
    25. А в Єрусалимі дзвони задзвонили (1:51)
    26. Київські дзвони (1:02)
    Виконавці:

    Солісти: О.Мартиненко (4); В.Яковенко(10, 11, 16, 24); С.Вознюк (11); О.Зіневич (11); О.Бойко (19); А. Цуприк (23)
    Віншувальники: Т.Лобода (12); В.Віняр і О.Бойко (17); Б.Куць (21)
    Інструментальна група: Т.Лобода, С.Вознюк (бандури); Б.Куць, Е.Орро (сопілки); Ансамбль дзвонарної музики "Київські дзвонарі" (1, 8, 26) під керівництвом засл. артиста України проф. Г.Черненко
    Регент: Володимир Віняр
    Диригент: Зеновій Паламар
    Тривалість: 00:53:18
    Аудіо-кодек: FLAC
    Мова: українська
    Видавець: Taras Bulba Entertainment

Тривалість: 09:33:12
Мова: українська, англійська, російська
Аудіо-кодек: FLAC
Бітрейт: lossless ~ 547-749 кб/с
Джерело: Файлообмінні сайти
Додаткова інформація:
Церковний хор "Видубичі" був заснований у 1990 році у Києві на початку відродження в Україні Православної церкви. Один з перших хорів, який співав Служби Божі українською мовою у відновлених храмах Києва та за його межами. Від 1993 року хор "Видубичі" співає в церквах XI - XVII ст. Видубицького чоловічого монастиря Служби Божі, бере участь у концертах та фестивалях духовної музики. Учасник IV Міжнародного хорового симпозіуму в Сіднеї (Австралія, 1996р.), великого турне по Канаді в травні 1997р., та Різдвяного в Бельгії 1998р., VIII Світового Конгресу Українців в Києві (Україна, 2003). У репертуарі хору духовні твори, пасхальні піснеспіви, колядки, щедрівки та українські народні піснеспіви. Створено більше десяти музичних програм, які записані на компакт-дисках, перший нотний збірник духовних творів, а також, завдяки діяльності громадської організації "Видубичі", створені умови сприяння розвитку української хорової музики.



Якщо Ви справді бажаєте підтримати українське - після прослуховування, якщо музика вам сподобалась, придбайте ліцензійний диск. Підтримаймо вітчизняних виконавців!


Золотий реліз (завантажене не впливає на рейтинг)
 Трекер:    Зареєстрований   

Завантажити / скачати українську музику



відео для новачків



 Зареєстрований:   2010-09-28 00:32
 Розмір:   2.71 GB 
 Оцінка музики:   8.7/10 (Голосів: 16)
   
ewgenus 
Поважний учасник


З нами з: 03.03.09
Востаннє: 13.10.16
Повідомлень: 194

2010-09-28 17:17  
Щиро вдячний за цей реліз.
А який плеєр читає цей формат?

Tarasyk 
Відео Гуртом - фільмокрай
Відео Гуртом - фільмокрай


З нами з: 26.08.09
Востаннє: 28.11.16
Повідомлень: 5972

2010-09-28 20:00  
ewgenus написано:
А який плеєр читає цей формат?

AIMP, foobar... Потрековий флак (в цій роздачі декілька таких альбомів) навіть Вінамп читає, ну принаймні останні кілька версій

Додано через 1 хвилину 11 секунд:

ewgenus, якщо Вам зручніше буде mp3, то ось альтернативна роздача: Церковний хор "Видубичі" - Дискографія (10 альбомів) (1993-2008) [MP3]

Skiff 
музика
музика


З нами з: 12.11.07
Востаннє: 08.12.16
Повідомлень: 3051

2010-09-29 07:51  
Tarasyk написано:
Потрековий флак (в цій роздачі декілька таких альбомів)

Лише один: 2008 - Бог Ся Рождає. Цей альбом тягнув окремо із іншого джерела (образ *.nrg)

Додано через 58 секунд:

Нажаль скани до цього альбома відсутні.

ssTAss 
Модератор музики


З нами з: 05.07.08
Востаннє: 08.12.16
Повідомлень: 10947

2010-11-21 17:24  
Skiff написано:
Нажаль скани до цього альбома відсутні.

маю цей альбом (але не 2008 року (?), а 2000)
видавець: КП "Оберіг ХХI"
трек-ліст той самий
от тільки проблєма, сканера немаю...

brownian 
Новенький


З нами з: 13.07.11
Востаннє: 08.12.16
Повідомлень: 13

2012-05-10 15:58  
Можу додати, що хор заснований Валентиною Шовкун. Чомусь Віняр цього не згадує.
733440 
Новенький


З нами з: 14.02.11
Востаннє: 15.11.15
Повідомлень: 1

2013-08-11 10:58  
Дайте будь-ласка швидкість на скачування 2-ох файлів "Видубичі"
plazmatix 
Свій


З нами з: 14.11.09
Востаннє: 30.11.16
Повідомлень: 71

2014-04-04 10:29  
Taras Bulba Entertainment видавав релізи в 1993 році? Здається тут помилка.
famous37 
Відео Гуртом - фільмокрай
Відео Гуртом - фільмокрай


З нами з: 16.11.08
Востаннє: 08.12.16
Повідомлень: 549

2015-11-25 20:56  
Хороша церковна музика. Дуже легко слухати. Всім рекомендую. =)
Ваш часовий пояс: GMT + 2 Години

Нова тема   Відповісти