Завантажити та скачати торренти українською


Вогні Великого Міста - Тополі (2002) [FLAC] | Free Jazz / Poetry / Experimental

Нові коментарі

Нова тема   Відповісти
Останній раз роздавалося Sigurd (2016-12-11)
Автор Повідомлення
Lev 
VIP


З нами з: 14.10.09
Востаннє: 09.12.16
Повідомлень: 1819

2010-09-26 06:19  
Вогні Великого Міста - Тополі (2002) [FLAC] | Free Jazz / Poetry / Experimental



Стиль: Free Jazz / Poetry / Experimental
Країна, місто: Україна, Львів-Київ
Видавець: Атлантік
Виконавці:
Юрко Покальчук - декламація власних перекладів поезій
Юрко Дуда (гр. "Плач Єремії") - труба, фортепіано, клавішні, перкусія (2, 9)
Олег "Джон" Сук (гр. "Мертвий Півень", "Ґорґішелі") - бас-гітара

Музика:

Юрко Дуда, Олег "Джон" Сук - 1,6,9,10
Юрко Дуда - 4,5,7,8,12,13
Олег "Джон" Сук - 2,3,11

Запис і зведення:

студія "Галвокс" (Львів), звукорежисер Едуард Григор'єв

Художнє оформлення: Влодка Кауфмана та Сашка Шевцова

Автори поезій:

Поль Елюар (1, 5, 8)
Октавіо Пас (2, 4, 6)
Федеріко Гарсія Лорка (3, 7)
Ґуннар Екльоф (9)
Рад'ярд Кіплінг (11, 12)
Біблія (13)

(переклади з іспанської, французької, англійської, шведської - Юрія Покальчука)
Пісні:
    01. Я сказав тобі це (07:43)
    02. Два тіла (05:40)
    03. Тополі (03:25)
    04. Дорога з крові (05:45)
    05. Розчиняються двері (03:52)
    06. Колони (05:35)
    07. Гітара (02:41)
    08. Самотній (04:04)
    09. Гора Час (04:28)
    10. Карб (04:21)
    11. Вампір (04:46)
    12. Єдиний син (04:52)
    13. З книги Еклезіяста (06:23)
log
Exact Audio Copy V0.99 prebeta 4 from 23. January 2008

Звіт EAC про видобування, котре виконане 16. квітня 2010, 8:15

Вогні Великого Міста / Тополі

Дисковод: HL-DT-STDVD-ROM GDR-H30N Adapter: 0 ID: 0

Режим читання : Точний
Використати точний потік : Так
Вимкнути аудіо кеш : Так
Застосувати мітки C2 : Ні

Корекція зміщення при читанні : 6
Екстрачитання областей Lead-in і Lead-out : Ні
Заповнення пропущених семплів тишею : Так
Видалення блоків з тишею на початку і кінці : Ні
При вирахуванні CRC використовувались нульові семпли : Так
Використаний інтерфейс : Встановлений зовнішній ASPI-інтерфейс
Поводження з проміжками : Приєднано до попереднього трека

Застосований вихідний формат : Кодер Користувача
Обраний бітрейт : 128 kBit/s
Якість : Високий
Додати тег ID3 : Ні
Компресор командного рядка : C:\Program Files\FLAC\flac.exe
Додаткові параметри командного рядка : -8 -V -T "ARTIST=%a" -T "TITLE=%t" -T "ALBUM=%g" -T "DATE=%y" -T "TRACKNUMBER=%n" -T "GENRE=%m" -T "COMMENT=EAC FLAC -8" %s

TOC видобутого CD

Трек | Старт | Довжина | Початковий сектор | Кінцевий сектор
------------------------------------------------------------------
1 | 0:00.00 | 7:42.40 | 0 | 34689
2 | 7:42.40 | 5:40.08 | 34690 | 60197
3 | 13:22.48 | 3:25.31 | 60198 | 75603
4 | 16:48.04 | 5:44.53 | 75604 | 101456
5 | 22:32.57 | 3:51.71 | 101457 | 118852
6 | 26:24.53 | 5:35.36 | 118853 | 144013
7 | 32:00.14 | 2:41.37 | 144014 | 156125
8 | 34:41.51 | 4:04.27 | 156126 | 174452
9 | 38:46.03 | 4:28.02 | 174453 | 194554
10 | 43:14.05 | 4:21.27 | 194555 | 214156
11 | 47:35.32 | 4:45.39 | 214157 | 235570
12 | 52:20.71 | 4:52.06 | 235571 | 257476
13 | 57:13.02 | 6:22.55 | 257477 | 286181

Трек 1

Ім'я файлу J:\ВВМ\01. Вогні Великого Міста - Я сказав тобі це.wav

Довжина проміжка 0:00:02.00

Піковий рівень 56.0 %
Якість трека 99.9 %
CRC тесту F55B330C
CRC копії F55B330C
Копіювання... OK

Трек 2

Ім'я файлу J:\ВВМ\02. Вогні Великого Міста - Два тіла.wav

Довжина проміжка 0:00:02.00

Піковий рівень 60.1 %
Якість трека 100.0 %
CRC тесту 3EDC6D5B
CRC копії 3EDC6D5B
Копіювання... OK

Трек 3

Ім'я файлу J:\ВВМ\03. Вогні Великого Міста - Тополі.wav

Довжина проміжка 0:00:02.00

Піковий рівень 57.2 %
Якість трека 100.0 %
CRC тесту CAA42DC9
CRC копії CAA42DC9
Копіювання... OK

Трек 4

Ім'я файлу J:\ВВМ\04. Вогні Великого Міста - Дорога з крові.wav

Довжина проміжка 0:00:02.00

Піковий рівень 59.9 %
Якість трека 100.0 %
CRC тесту 89E7FA08
CRC копії 89E7FA08
Копіювання... OK

Трек 5

Ім'я файлу J:\ВВМ\05. Вогні Великого Міста - Розчиняються двері.wav

Довжина проміжка 0:00:02.00

Піковий рівень 56.7 %
Якість трека 100.0 %
CRC тесту 45A994D2
CRC копії 45A994D2
Копіювання... OK

Трек 6

Ім'я файлу J:\ВВМ\06. Вогні Великого Міста - Колони.wav

Довжина проміжка 0:00:02.00

Піковий рівень 57.5 %
Якість трека 100.0 %
CRC тесту 4B76B556
CRC копії 4B76B556
Копіювання... OK

Трек 7

Ім'я файлу J:\ВВМ\07. Вогні Великого Міста - Гітара.wav

Довжина проміжка 0:00:02.00

Піковий рівень 53.9 %
Якість трека 100.0 %
CRC тесту 500C2E93
CRC копії 500C2E93
Копіювання... OK

Трек 8

Ім'я файлу J:\ВВМ\08. Вогні Великого Міста - Самотній.wav

Довжина проміжка 0:00:02.00

Піковий рівень 56.8 %
Якість трека 100.0 %
CRC тесту 0864C45A
CRC копії 0864C45A
Копіювання... OK

Трек 9

Ім'я файлу J:\ВВМ\09. Вогні Великого Міста - Гора Час.wav

Довжина проміжка 0:00:02.00

Піковий рівень 56.4 %
Якість трека 100.0 %
CRC тесту 8156AF0A
CRC копії 8156AF0A
Копіювання... OK

Трек 10

Ім'я файлу J:\ВВМ\10. Вогні Великого Міста - Карб.wav

Довжина проміжка 0:00:02.00

Піковий рівень 58.0 %
Якість трека 100.0 %
CRC тесту 0DCE8886
CRC копії 0DCE8886
Копіювання... OK

Трек 11

Ім'я файлу J:\ВВМ\11. Вогні Великого Міста - Вампір.wav

Довжина проміжка 0:00:02.00

Піковий рівень 60.8 %
Якість трека 100.0 %
CRC тесту 24F0BD85
CRC копії 24F0BD85
Копіювання... OK

Трек 12

Ім'я файлу J:\ВВМ\12. Вогні Великого Міста - Єдиний син.wav

Довжина проміжка 0:00:02.00

Піковий рівень 59.6 %
Якість трека 100.0 %
CRC тесту DAEF5063
CRC копії DAEF5063
Копіювання... OK

Трек 13

Ім'я файлу J:\ВВМ\13. Вогні Великого Міста - З книги Еклкзіяста.wav

Довжина проміжка 0:00:02.00

Піковий рівень 55.1 %
Якість трека 100.0 %
CRC тесту 42C8C808
CRC копії 42C8C808
Копіювання... OK

Помилки не траплялися

Кінець звіту
Тривалість: 01:02:55
Мова: українська
Аудіо-кодек: FLAC
Бітрейт: 455-882 кб/с, 16 bit / 44100 Hz
Джерело: ріп EAC з оригінального диску (інший трекер)
Додаткова інформація:
Роздача містить якісні скани буклету!

Розшукується також альбом "Гіро Лам Бей" (2004) у відповідній якості.
Хто має - викладайте!


Також на Торрент-Толоці Гуртом ви можете знайти :

Вогні Великого Міста - Вони кажуть (2002) [FLAC]


Якщо Ви справді бажаєте підтримати українське - після прослуховування, якщо музика вам сподобалась, придбайте ліцензійний диск. Підтримаймо вітчизняних виконавців!


Срібний реліз (на рейтинг впливає 50% завантаженого)
 Трекер:    Зареєстрований   

Завантажити / скачати українську музику



відео для новачків



 Зареєстрований:   2010-09-26 06:19
 Розмір:   312 MB 
 Оцінка музики:   10/10 (Голосів: 12)
   
Ваш часовий пояс: GMT + 2 Години

Нова тема   Відповісти