Завантажити та скачати торренти українською


Вогні Великого Міста - Вони кажуть (2002) [FLAC] | Free Jazz / Poetry / Experimental

Нові коментарі

Нова тема   Відповісти
Останній раз роздавалося Андрій1987 (2016-12-02)
Автор Повідомлення
Lev 
VIP


З нами з: 14.10.09
Востаннє: 28.11.16
Повідомлень: 1819

2010-09-26 05:10  
Вогні Великого Міста - Вони кажуть (2002) [FLAC] | Free Jazz / Poetry / Experimental



Стиль: Free Jazz / Poetry / Experimental / Ambient
Країна, місто: Україна, Львів-Київ
Видавець: Атлантік
Виконавці:
Юрко Покальчук та музиканти, звукорежисери
Юрко Покальчук - декламація віршів (власні та перекладні)
Олег "Джон" Сук (гр. "Мертвий Півень", "Ґорґішелі")- бас-гітара (1-3, 5-8, 13), гітара (6, 7, 13), клавішні (7, 13)
Юрко Дуда (гр. "Плач Єремії")- труба (1, 4-7), клавішні (1, 7-9, 13) фортепіано (2, 5, 6) перкусія (2)
Андрій П'ятаков - ударні (1, 6-8, 10, 11, 13)
Місько Барбара (гр. "Мертвий Півень")- бек-вокал (1)
Сергій Чегодаєв (гр."Мандри") - бас-гітара (9)
Олексій Макаревич - ударні (9)
Іван Небесний (гр."Сестри Тельнюк") - клавішні (10, 11)

ансамбль нової музики "Кластер" (10, 11)

група "Мандри" (12) :

Фома - гітара,
Сергій Чегодаєв - бас-гітара,
Лесь Бєлєй - акордеон,
Андрій Занько - ударні,
Салман Салманов - перкусія

Запис і зведення:

Едуард Григор'єв (Львів) - 2-5
Запис на Студії Лева (Львів) - 1, 6-8, 10-13
Запис на студії "Спати" (Київ) - 9, зведення - Андрій Кузьменко (гр."Скрябін") - 9
Олег Мисловський - 12, Андрій П'ятаков (1, 6-8, 13), Іван Небесний, Андрій П'ятаков (10, 11)

Автори поезій:

Юрко Покальчук (7,8, 10-12)
Федеріко Гарсія Лорка (1-3)
Поль Елюар (4)
Октавіо Пас (5)
Ґуннар Екльоф (6)
Біблія (9)
Олаф Ґ. Ґауґе (13)
Пісні:
    01. Смерть (06:26)
    02. Гітара (02:29)
    03. Тополі (03:11)
    04. Самотній (03:47)
    05. Розчиняються двері (03:34)
    06. Тремтіння (04:30)
    07. Не можу без (03:38)
    08. Хто ти (07:12)
    09. З книги Еклезіяста (04:14)
    10. Вони кажуть (05:28)
    11. Слово (07:37)
    12. Химера (05:05)
    13. Корабель (04:03)
    log
    Exact Audio Copy V0.99 prebeta 5 from 4. May 2009

    EAC extraction logfile from 16. September 2010, 4:28

    Вогні Великого Міста / Вони кажуть

    Used drive : TEAC CD-W540E Adapter: 1 ID: 0

    Read mode : Secure
    Utilize accurate stream : Yes
    Defeat audio cache : Yes
    Make use of C2 pointers : No

    Read offset correction : 686
    Overread into Lead-In and Lead-Out : No
    Fill up missing offset samples with silence : Yes
    Delete leading and trailing silent blocks : No
    Null samples used in CRC calculations : Yes
    Used interface : Installed external ASPI interface
    Gap handling : Not detected, thus appended to previous track

    Used output format : User Defined Encoder
    Selected bitrate : 1024 kBit/s
    Quality : High
    Add ID3 tag : No
    Command line compressor : C:\Program Files\Exact Audio Copy\Flac\flac.exe
    Additional command line options : -8 –V -T "ARTIST=%a" –T "TITLE=%t" -T "ALBUM =%g" -T "DATE =%y" –T "TRACKNUMBER=%n" -T "GENRE =%m" -T" COMMENT= EAC FLAC -8 "%s

    TOC of the extracted CD

    Track | Start | Length | Start sector | End sector
    ---------------------------------------------------------
    1 | 0:00.00 | 6:26.14 | 0 | 28963
    2 | 6:26.14 | 2:28.45 | 28964 | 40108
    3 | 8:54.59 | 3:10.68 | 40109 | 54426
    4 | 12:05.52 | 3:46.39 | 54427 | 71415
    5 | 15:52.16 | 3:34.21 | 71416 | 87486
    6 | 19:26.37 | 4:29.70 | 87487 | 107731
    7 | 23:56.32 | 3:38.09 | 107732 | 124090
    8 | 27:34.41 | 7:11.74 | 124091 | 156489
    9 | 34:46.40 | 4:14.17 | 156490 | 175556
    10 | 39:00.57 | 5:27.67 | 175557 | 200148
    11 | 44:28.49 | 7:37.25 | 200149 | 234448
    12 | 52:05.74 | 5:05.15 | 234449 | 257338
    13 | 57:11.14 | 4:02.74 | 257339 | 275562

    Track 1

    Filename G:\Вогні Великого Міста - Вони кажуть [2002] FLAC\01 - Смерть (Федеріко Гарсія Лорка).wav

    Peak level 100.0 %
    Track quality 99.9 %
    Test CRC F1367BAA
    Copy CRC F1367BAA
    Track not present in AccurateRip database
    Copy OK

    Track 2

    Filename G:\Вогні Великого Міста - Вони кажуть [2002] FLAC\02 - Гітара (Федеріко Гарсія Лорка).wav

    Peak level 87.6 %
    Track quality 100.0 %
    Test CRC 68CBA17B
    Copy CRC 68CBA17B
    Track not present in AccurateRip database
    Copy OK

    Track 3

    Filename G:\Вогні Великого Міста - Вони кажуть [2002] FLAC\03 - Тополі (Федеріко Гарсія Лорка).wav

    Peak level 84.0 %
    Track quality 99.9 %
    Test CRC 7360F0B3
    Copy CRC 7360F0B3
    Track not present in AccurateRip database
    Copy OK

    Track 4

    Filename G:\Вогні Великого Міста - Вони кажуть [2002] FLAC\04 - Самотній (Поль Елюар).wav

    Peak level 83.4 %
    Track quality 100.0 %
    Test CRC F61FB69C
    Copy CRC F61FB69C
    Track not present in AccurateRip database
    Copy OK

    Track 5

    Filename G:\Вогні Великого Міста - Вони кажуть [2002] FLAC\05 - Розчиняються двері (Октавіо Пас).wav

    Peak level 93.6 %
    Track quality 100.0 %
    Test CRC 5663D6DD
    Copy CRC 5663D6DD
    Track not present in AccurateRip database
    Copy OK

    Track 6

    Filename G:\Вогні Великого Міста - Вони кажуть [2002] FLAC\06 - Тремтіння (Ґуннар Екльоф).wav

    Peak level 100.0 %
    Track quality 100.0 %
    Test CRC 94477F74
    Copy CRC 94477F74
    Track not present in AccurateRip database
    Copy OK

    Track 7

    Filename G:\Вогні Великого Міста - Вони кажуть [2002] FLAC\07 - Не можу без (Юрко Покальчук).wav

    Peak level 100.0 %
    Track quality 100.0 %
    Test CRC C860A6E7
    Copy CRC C860A6E7
    Track not present in AccurateRip database
    Copy OK

    Track 8

    Filename G:\Вогні Великого Міста - Вони кажуть [2002] FLAC\08 - Хто ти (Юрко Покальчук).wav

    Peak level 99.3 %
    Track quality 100.0 %
    Test CRC 64CD0A22
    Copy CRC 64CD0A22
    Track not present in AccurateRip database
    Copy OK

    Track 9

    Filename G:\Вогні Великого Міста - Вони кажуть [2002] FLAC\09 - З книги Еклезіяста (Біблія).wav

    Peak level 100.0 %
    Track quality 100.0 %
    Test CRC C3FF0EFD
    Copy CRC C3FF0EFD
    Track not present in AccurateRip database
    Copy OK

    Track 10

    Filename G:\Вогні Великого Міста - Вони кажуть [2002] FLAC\10 - Вони кажуть (Юрко Покальчук).wav

    Peak level 97.0 %
    Track quality 100.0 %
    Test CRC 8F22E373
    Copy CRC 8F22E373
    Track not present in AccurateRip database
    Copy OK

    Track 11

    Filename G:\Вогні Великого Міста - Вони кажуть [2002] FLAC\11 - Слово (Юрко Покальчук).wav

    Peak level 100.0 %
    Track quality 100.0 %
    Test CRC F08F252F
    Copy CRC F08F252F
    Track not present in AccurateRip database
    Copy OK

    Track 12

    Filename G:\Вогні Великого Міста - Вони кажуть [2002] FLAC\12 - Химера (Юрко Покальчук).wav

    Peak level 95.6 %
    Track quality 100.0 %
    Test CRC 27AB7ADA
    Copy CRC 27AB7ADA
    Track not present in AccurateRip database
    Copy OK

    Track 13

    Filename G:\Вогні Великого Міста - Вони кажуть [2002] FLAC\13 - Корабель (Олаф Ґ. Ґауґе).wav

    Peak level 99.9 %
    Track quality 100.0 %
    Test CRC 79A269AE
    Copy CRC 79A269AE
    Track not present in AccurateRip database
    Copy OK

    None of the tracks are present in the AccurateRip database

    No errors occurred

    End of status report

Тривалість: 01:01:14
Мова: українська
Аудіо-кодек: FLAC
Бітрейт: 459-957кб/с, 16 bit / 44100 Hz
Джерело: власний диск > ріп EAC

Розшукується також альбом "Гіро Лам Бей" (2004) у відповідній якості.
Хто має - викладайте!


Також на Торрент-Толоці Гуртом ви можете знайти :

Вогні Великого Міста - Тополі (2002)[FLAC]


Срібний реліз (на рейтинг впливає 50% завантаженого)
 Трекер:    Зареєстрований   

Завантажити / скачати українську музику



відео для новачків



 Зареєстрований:   2010-09-26 05:10
 Розмір:   343 MB 
 Оцінка музики:   9.7/10 (Голосів: 21)
   
repa_m33 
Свій


З нами з: 18.07.09
Востаннє: 06.09.16
Повідомлень: 112

2010-12-14 20:39  
Треба оцінити... Джазззззз))))
smisha_ 
Відео Гуртом - субтитрування
Відео Гуртом - субтитрування


З нами з: 14.06.08
Востаннє: 10.04.16
Повідомлень: 254

2010-12-17 18:58  
Цікаво-Цікаво... Що ж воно за джаз від Покальчука і Ко.
Sigurd 
Свій


З нами з: 20.01.09
Востаннє: 03.12.16
Повідомлень: 123

2011-10-10 23:59  
мені так соромно, що я їх до тепер не чув...
Ваш часовий пояс: GMT + 2 Години

Нова тема   Відповісти