Завантажити та скачати торренти українською


Юрій Товстоган, "Слід" - Рок легенди України (2005) [FLAC] | Rock

Нові коментарі

Нова тема   Відповісти
Останній раз роздавалося Myfordownloads (2016-10-09)
Автор Повідомлення
Khtos 
Свій


З нами з: 24.06.09
Востаннє: 02.12.16
Повідомлень: 107

2010-09-22 22:01  
Юрій Товстоган, "Слід" - Рок легенди України (2005) [FLAC] | Rock

Юрій Товстоган, "Слід" - Рок легенди України (2005) [FLAC] | Rock


Стиль: Rock
Країна, місто: Україна, Київ
Видавець: Атлантік
Виконавці:
Юрій Товстоган, гурт Слід
Пісні:
    1. Ouverture
    2. Безбудущие
    3. Повернення
    4. Гей у лузі (переспів з народної)
    5. Это было вчера
    6. SAGA
    7. Trace At Time
    8. Wings
    9. Wrong Planet
    10. Status Quo
    11. Мой след

Тривалість: 00:41:15
Мова: українська (3,4), англійська (9), російська (2,5,7,10,11), інструментал (1,6,8)
Аудіо-кодек: FLAC
Бітрейт: 995 кбіт/с
Джерело: власний ріп
Про групу
Log
Exact Audio Copy V1.0 beta 3 from 29. August 2011

EAC extraction logfile from 8. March 2013, 19:04

Юрій Товстоган, гурт "Слід" / Рок легенди України

Used drive : hp DVD A DS8A5LH Adapter: 0 ID: 1

Read mode : Secure
Utilize accurate stream : Yes
Defeat audio cache : Yes
Make use of C2 pointers : No

Read offset correction : 6
Overread into Lead-In and Lead-Out : No
Fill up missing offset samples with silence : Yes
Delete leading and trailing silent blocks : No
Null samples used in CRC calculations : Yes
Used interface : Native Win32 interface for Win NT & 2000

Used output format : User Defined Encoder
Selected bitrate : 1024 kBit/s
Quality : High
Add ID3 tag : No
Command line compressor : C:\Program Files (x86)\Exact Audio Copy\Flac\flac.exe
Additional command line options : -V -8 -T "Date=%year%" -T "Genre=%genre%" %source%

TOC of the extracted CD

Track | Start | Length | Start sector | End sector
---------------------------------------------------------
1 | 0:00.00 | 1:50.14 | 0 | 8263
2 | 1:50.14 | 4:42.10 | 8264 | 29423
3 | 6:32.24 | 2:48.47 | 29424 | 42070
4 | 9:20.71 | 4:40.00 | 42071 | 63070
5 | 14:00.71 | 3:22.46 | 63071 | 78266
6 | 17:23.42 | 4:12.00 | 78267 | 97166
7 | 21:35.42 | 3:15.00 | 97167 | 111791
8 | 24:50.42 | 4:52.74 | 111792 | 133765
9 | 29:43.41 | 2:47.42 | 133766 | 146332
10 | 32:31.08 | 5:05.64 | 146333 | 169271
11 | 37:36.72 | 3:38.18 | 169272 | 185639

Range status and errors

Selected range

Filename D:\Music\Loseless\Tovstogan\Юрій Товстоган, гурт ''Слід'' - Рок легенди України.wav

Peak level 100.0 %
Extraction speed 1.7 X
Range quality 100.0 %
Test CRC 1D5DDB5A
Copy CRC 1D5DDB5A
Copy OK

No errors occurred

AccurateRip summary

Track 1 not present in database
Track 2 not present in database
Track 3 not present in database
Track 4 not present in database
Track 5 not present in database
Track 6 not present in database
Track 7 not present in database
Track 8 not present in database
Track 9 not present in database
Track 10 not present in database
Track 11 not present in database

None of the tracks are present in the AccurateRip database

End of status report

==== Log checksum B58F136557BD9032AB4768DC1E61A4EBDD8D507574739FEBAF85BBEC3E40CA3C ====


Срібний реліз (на рейтинг впливає 50% завантаженого)
 Трекер:    Зареєстрований   

Завантажити / скачати українську музику



відео для новачків



 Зареєстрований:   2013-03-08 21:59
 Розмір:   314 MB 
 Оцінка музики:   10/10 (Голосів: 4)
   
ssTAss 
Модератор музики


З нами з: 05.07.08
Востаннє: 10.12.16
Повідомлень: 10954

2010-09-23 00:46  
Khtos написано:
Бітрейт:

треба вказати числове значення

jinotot 
Почесний оцифрувальник літератури


З нами з: 28.01.09
Востаннє: 04.12.16
Повідомлень: 3235

2010-09-23 17:14  
...і все ж таки з'ясувати -- тут флак, мп3 чи апе))) Wink (2)
Khtos написано:
Рок легенди України (2005) [Flac] | Rock

Khtos написано:
Рок легенди України (2005) [MP3] | Rock

Khtos написано:
Аудіо-кодек: FLAC

Khtos написано:
Юрій Товстоган - Слід.ape

Думаю, що таки останнє, але навіть не уявляю, чому в оформленні подано таку різнорідну інформацію?? Happy

Khtos 
Свій


З нами з: 24.06.09
Востаннє: 02.12.16
Повідомлень: 107

2010-09-23 21:00  
При створенні релізу використовувались:
1. EAC в налаштуваннях якого вказано в якості програми, що використовується для компресії Flac та бітрейт 128 kBit/s.
2. Monkey's Audio
3. Раніщше оформлена роздача в мп3.
Звідси вся плутанина. Якщо ще десь щось не так зробив - виправлю
Взагалі, це здається 2 спроба в створенні лузлессу. Тому все можливо....
Вибачте, якщо щось не так.

ssTAss 
Модератор музики


З нами з: 05.07.08
Востаннє: 10.12.16
Повідомлень: 10954

2010-09-23 21:52  
Khtos написано:
що використовується для компресії Flac та бітрейт 128 kBit/s

))))
АРЕ і 968 кбіт/с
і викладіть лог-файл
Khtos написано:
це здається 2 спроба в створенні лузлессу. Тому все можливо....

отут дуже гарно все написано
http://toloka.to/t9896

а треки треба нормально називати, а не Track 1, Track 2.... і теги прописувати

Додано через 6 хвилин 33 секунди:

крім того, Ваш .cue не відкриє Вашого .ape
треба отой куе відкрити в редакторі і в стрічці
Цитата:
FILE "Юрій Товстоган - Слід.wav" WAVE

замінити .wav на .ape

Khtos 
Свій


З нами з: 24.06.09
Востаннє: 02.12.16
Повідомлень: 107

2010-09-24 20:25  
Прошу тайм аут.
Завтра буду виправляти свої помилки.
Прошу вибачення в тих, хто вже завантажив файли.

ssTAss 
Модератор музики


З нами з: 05.07.08
Востаннє: 10.12.16
Повідомлень: 10954

2013-03-08 21:33  
а чи не могли б Ви викласти повний комплект сканів?
Khtos 
Свій


З нами з: 24.06.09
Востаннє: 02.12.16
Повідомлень: 107

2013-03-08 21:36  
ssTAss
Ви ті що в роздачі бачили? Там тільки не вистачає того що в футлярі - ліньки розбирати було, але якщо треба - зараз додам.

fanDYNAMO 
Частий відвідувач


З нами з: 30.12.12
Востаннє: 05.12.16
Повідомлень: 38

2013-03-08 22:13  
Khtos
можна вже закачувати?

Ваш часовий пояс: GMT + 2 Години

Нова тема   Відповісти