Завантажити та скачати торренти українською


Смак життя / No Reservations (2007) 720p Ukr/Eng | Sub Ukr/Eng

Нові коментарі

Нова тема   Відповісти
Автор Повідомлення
Віктор 
Відео Гуртом - субтитрування
Відео Гуртом - субтитрування


З нами з: 09.01.10
Востаннє: 04.12.16
Повідомлень: 8663

2010-09-16 19:43  
Смак життя / No Reservations (2007) 720p Ukr/Eng | Sub Ukr/Eng



«Something's Cooking This Summer»


Жанр: комедія, драма, романтичний
Країна: США, Австралія



Кіностудія / кінокомпанія: Castle Rock Entertainment, Storefront Pictures, Village Roadshow Pictures, Warner Bros. Pictures Co.
Режисер: Скот Гікс (Scott Hicks)
Композитор: Філіп Ґласс (Philip Glass)
Прем'єра в Україні: 30.08.2007
Актори: Кетрін Зета-Джонс (Catherine Zeta-Jones), Аарон Екгарт (Aaron Eckhart), Ебіґейл Бреслін (Abigail Breslin), Патріція Кларксон (Patricia Clarkson), Дженні Вейд (Jenny Wade), Боб Белабан (Bob Balaban), Браян Ф. О’Бірн (Brían F. O'Byrne), Лілі Рейб (Lily Rabe), Ерік Сільвер (Eric Silver) та інші.

Сюжет:
Кейт Армстронґ - професійний кухар. Кулінарія її натхнення, сенс її життя. Робота поглинає її настільки, що вона нічого іншого навколо не помічає. Після раптової трагедії, яка відбулася з сім'єю її сестри, вона вимушена дбати про племінницю. Юне чарівне створіння кардинально змінює її долю. У життя Кейт повертається любов, ніжність, щастя.
Цікаві факти

Цікаві факти про фільм


• Стрічка є рімейком італійсько-німецького фільму “Незрівнянна Марта” - Mostly Martha (2001) з Мартіною Гедек і Серджом Кастелліто у головних ролях. Готуючись до ролі, Зета-Джонс пропрацювала один вечір офіціанткою в Нью-Йоркському ресторані Fiamma Osteria; коли їй казали, що вона дуже схожа на відому акторку, Кетрін відповідала, що їй про це кажуть усе життя. Розпочавши роботу над фільмом, режисер з жахом дізнався, що Зета-Джонс і Екгарт не можуть навіть правильно зварити яйце, тому влаштував для них зайняття з найкращими кухарями Нью-Йорка.
• У самому кінці фільму можна помітити композитора Філіпа Ґласса який написав до нього музику, він сидить за одним з виставлених на вулицю столиків у бістро.
• Зйомки тривали з 5 грудня 2005 р. до 18 листопада 2006 р.
• Бюджет – $28,000,000.
MediaInfo

Код:
General
Unique ID                        : 182764912941002321621419817797468549980 (0x897F3DEAA4FB133CA434E8713EB3F35C)
Complete name                    : D:\HURTOM\No Reservations (2007) [ukr, eng] 720p [Hurtom].mkv
Format                           : Matroska
Format version                   : Version 2
File size                        : 4.70 GiB
Duration                         : 1h 44mn
Overall bit rate                 : 6 448 Kbps
Movie name                       : No Reservations (2007) [ukr,eng] 720p [Hurtom]
Encoded date                     : UTC 2012-01-13 09:58:00
Writing application              : mkvmerge v5.0.1 ('Es ist Sommer') built on Oct  9 2011 11:55:43
Writing library                  : libebml v1.2.2 + libmatroska v1.3.0

Video
ID                               : 1
Format                           : AVC
Format/Info                      : Advanced Video Codec
Format profile                   : [email protected]
Format settings, CABAC           : Yes
Format settings, ReFrames        : 5 frames
Codec ID                         : V_MPEG4/ISO/AVC
Duration                         : 1h 44mn
Bit rate                         : 5 358 Kbps
Width                            : 1 280 pixels
Height                           : 528 pixels
Display aspect ratio             : 2.40:1
Frame rate                       : 23.976 fps
Color space                      : YUV
Chroma subsampling               : 4:2:0
Bit depth                        : 8 bits
Scan type                        : Progressive
Bits/(Pixel*Frame)               : 0.331
Stream size                      : 3.81 GiB (81%)
Title                            : No Reservations (2007) [ukr,eng] 720p [Hurtom]
Writing library                  : core 58 svn-735
Encoding settings                : cabac=1 / ref=5 / deblock=1:0:0 / analyse=0x3:0x113 / me=umh / subme=7 / brdo=1 / mixed_ref=1 / me_range=16 / chroma_me=1 / trellis=1 / 8x8dct=1 / cqm=0 / deadzone=21,11 / chroma_qp_offset=0 / threads=6 / nr=0 / decimate=1 / mbaff=0 / bframes=3 / b_pyramid=1 / b_adapt=1 / b_bias=0 / direct=1 / wpredb=1 / bime=1 / keyint=250 / keyint_min=25 / scenecut=40(pre) / rc=2pass / bitrate=5358 / ratetol=1.0 / rceq='blurCplx^(1-qComp)' / qcomp=0.60 / qpmin=10 / qpmax=51 / qpstep=4 / cplxblur=20.0 / qblur=0.5 / ip_ratio=1.40 / pb_ratio=1.30
Language                         : English
Default                          : Yes
Forced                           : No

Audio #1
ID                               : 2
Format                           : AC-3
Format/Info                      : Audio Coding 3
Mode extension                   : CM (complete main)
Codec ID                         : A_AC3
Duration                         : 1h 44mn
Bit rate mode                    : Constant
Bit rate                         : 448 Kbps
Channel(s)                       : 6 channels
Channel positions                : Front: L C R, Side: L R, LFE
Sampling rate                    : 48.0 KHz
Bit depth                        : 16 bits
Compression mode                 : Lossy
Stream size                      : 334 MiB (7%)
Title                            : 5.1 @ 448 kbps - двоголосий закадровий або багатоголосий
Language                         : Ukrainian
Default                          : Yes
Forced                           : No

Audio #2
ID                               : 3
Format                           : AC-3
Format/Info                      : Audio Coding 3
Mode extension                   : CM (complete main)
Codec ID                         : A_AC3
Duration                         : 1h 44mn
Bit rate mode                    : Constant
Bit rate                         : 640 Kbps
Channel(s)                       : 6 channels
Channel positions                : Front: L C R, Side: L R, LFE
Sampling rate                    : 48.0 KHz
Bit depth                        : 16 bits
Compression mode                 : Lossy
Stream size                      : 478 MiB (10%)
Title                            : 5.1 @ 640 kbps
Language                         : English
Default                          : No
Forced                           : No

Text #1
ID                               : 4
Format                           : UTF-8
Codec ID                         : S_TEXT/UTF8
Codec ID/Info                    : UTF-8 Plain Text
Title                            : SDІ Меdіа Grоuр
Language                         : Ukrainian
Default                          : No
Forced                           : No

Text #2
ID                               : 5
Format                           : UTF-8
Codec ID                         : S_TEXT/UTF8
Codec ID/Info                    : UTF-8 Plain Text
Language                         : English
Default                          : No
Forced                           : No
Релізи та інформація про озвучення/дублювання

Завантажити:
720p Ukr/Eng | Sub Ukr/Eng (4.70 GB) - двоголосий або багатоголосий закадровий запис звук з ICTV
Ukr/Eng | sub Ukr (2.22 GB) - двоголосий або багатоголосий закадровий запис звук з ICTV

Ролі озвучили: один чоловічий точно і можливо два жіночих
Тривалість: 01:44:19
Якість: 720p
Відео:
кодек:
розмір кадру: 1280x528
бітрейт: 5358 кб/с

Аудіо # 1:
мова: українська
переклад: двоголосий або багатоголосий закадровий запис звук з ICTV
кодек: 5.1
бітрейт: 448 кб/с

Аудіо # 2:
мова: англійська
переклад: оригінал
кодек: 5.1
бітрейт: 640 кб/с

Субтитри # 1:
мова: українська
тип: програмні (м'які)
формат: *.srt
джерело субтитрів: DVD, (SDІ Меdіа Grоuр) редагування: w2958l

Субтитри # 2:
мова: англійська
тип: програмні (м'які)
формат: *.srt

Скріншоти:





За синхронізацію української доріжки подяка NemoInFire,
за запис звуку з тб подяка akon111 і Technomate
за українізацію постера подяка Тирік-y


Джерело: &
Особиста оцінка: 8 - мені сподобалось


 Трекер:    Зареєстрований   

Завантажити / скачати фільм українською



відео для новачків



 Зареєстрований:   2012-01-13 12:52
 Розмір:   4.7 GB 
 Оцінка фільму:   8.8/10 (Голосів: 30)
   
Інші релізи
   Смак життя / No Reservations (2007) Ukr/Eng | sub Ukr NemoInFire  3 / 2   2.22 GB   2012-01-12 21:38 
mikssss 
Свій


З нами з: 14.02.10
Востаннє: 01.12.16
Повідомлень: 140

2010-09-18 00:15  
класний фільм!)
Тирік 
VIP


З нами з: 06.04.09
Востаннє: 17.09.13
Повідомлень: 909

2010-09-19 10:14  
ось, може підійде постер:
Смак життя No Reservations (2007)

Віктор 
Відео Гуртом - субтитрування
Відео Гуртом - субтитрування


З нами з: 09.01.10
Востаннє: 04.12.16
Повідомлень: 8663

2010-09-19 10:31  
Тирік написано:
ось, може підійде постер:
Дякую, але ні, це так би мовити офіційний постер, мені треба до бд-ріпу)
abodnya 
Відео Гуртом - фільмокрай
Відео Гуртом - фільмокрай


З нами з: 02.11.08
Востаннє: 04.12.16
Повідомлень: 5960

2010-09-19 10:41  
А що, важко офіційний постер затурити в бд рамочку?
Віктор 
Відео Гуртом - субтитрування
Відео Гуртом - субтитрування


З нами з: 09.01.10
Востаннє: 04.12.16
Повідомлень: 8663

2010-09-19 10:56  
abodnya написано:
А що, важко офіційний постер затурити в бд рамочку?

Мені важко, бо я у фотошопі не петраю) Окрім того не люблю офіційні постери.

Тирік 
VIP


З нами з: 06.04.09
Востаннє: 17.09.13
Повідомлень: 909

2010-09-19 11:04  
abodnya написано:
А що, важко офіційний постер затурити в бд рамочку?

А я звідки знав, мені більше подобається без неї, я краще значок бд десь втиснув. Але як тобі тереба з рамочкою, то зара буде...

mmmman 
Частий відвідувач


З нами з: 01.08.09
Востаннє: 04.12.16
Повідомлень: 43

2010-10-24 14:31  
Хороший фільм... Перегляд був простий і приємний.
Аарон Екхарт вкотре тішить своєю грою.

Дякую!

Віктор 
Відео Гуртом - субтитрування
Відео Гуртом - субтитрування


З нами з: 09.01.10
Востаннє: 04.12.16
Повідомлень: 8663

2010-10-24 14:42  
mmmman, будь ласка. Треба буде зробити фільмографію Аарона Екхарта Happy
leroykendall 
Модератор HD


З нами з: 03.01.11
Востаннє: 20.11.16
Повідомлень: 749

2012-01-12 23:05  
Вже є українська доріжка з ICTV.
Віктор 
Відео Гуртом - субтитрування
Відео Гуртом - субтитрування


З нами з: 09.01.10
Востаннє: 04.12.16
Повідомлень: 8663

2012-01-12 23:08  
leroykendall написано:
Вже є українська доріжка з ICTV.

Є окремо? Давай.) Завтра якщо завантажу http://toloka.to/t31855 оновлю цю роздачу.

Віктор 
Відео Гуртом - субтитрування
Відео Гуртом - субтитрування


З нами з: 09.01.10
Востаннє: 04.12.16
Повідомлень: 8663

2012-01-13 12:54  
Увага, торрент оновлено, додано укр. доріжку. Тому старий файл видаліть і завантажте цей торрент.

Ваш часовий пояс: GMT + 2 Години

Нова тема   Відповісти