Завантажити та скачати торренти українською


Файно - І та любов (2006) [FLAC] | Rock

Нові коментарі

Нова тема   Відповісти
Останній раз роздавалося Chornobruvui (2016-11-07)
Автор Повідомлення
iwan wan 
VIP


З нами з: 01.10.09
Востаннє: 06.12.16
Повідомлень: 1760

2010-09-15 19:16  
Файно - І та любов (2006) [FLAC] | Rock



Стиль: Rock
Країна, місто: Україна , Львів
Сайти: Офіційний сайт
Видавець: UKRmusic
Виконавці:
Мар’ян Приступа - гітара
Ольга Корнійчук - вокал
Павло Пащенко - бас-гітара
Денис Тихонов - клавішні
Андрій Войтюк - drums, бек-вокал
Пісні:
    01 Трамвай
    02 Вовчі ягоди
    03 Made in China
    04 Хмари
    05 І та любов
    06 Гамлету
    07 Безсоння
    08 Сонця в калюжах
    09 Файно
    10 Не в небо
    11 Проникаю

Тривалість: 00:39:41
Мова: українська
Аудіо-кодек: FLAC
Бітрейт: 979 кб/с
Джерело: Інший трекер
Додаткова інформація:
«ФАЙНО» — рок-гурт створений навесні 2003 року гітаристом Мар’яном Приступою. До складу колективу увійшли досвідчені музиканти, за плечима яких участь у багатьох групах і музичних проектах. Після довготривалого кастингу місце вокаліста зайняла чарівна дівчина з гарячим серцем Оля Корнійчук.

Протягом останніх трьох років колектив активно працював над власним творчим обличчям. За 2004-5 роки було створено більше 30 композицій, більшість з яких група виконує на концертах. Також 8 пісень було записано на різних студіях україни, кілька з них: Вечір, Сонця в калюжах, Саночки успішно потрапили в ефіри радіостанцій.

Група ФАЙНО виконує власні композиції на вірші відомих українських поетів Грицька Чубая, Юрія Покальчука, Назара Гончара та інших, а також кавер-версії відомих світових гітів.

Група активно концертує і на сьогоднішній день закінчила та видала дебютний альбом І та любов ...
Log

xact Audio Copy V0.99 prebeta 5 from 4. May 2009
EAC extraction logfile from 8. September 2010, 23:18
Файно / І та любов
Used drive : HL-DT-STDVDRAM GSA-T50L Adapter: 1 ID: 0
Read mode : Secure
Utilize accurate stream : Yes
Defeat audio cache : Yes
Make use of C2 pointers : No
Read offset correction : 667
Overread into Lead-In and Lead-Out : No
Fill up missing offset samples with silence : Yes
Delete leading and trailing silent blocks : No
Null samples used in CRC calculations : Yes
Used interface : Native Win32 interface for Win NT & 2000
Used output format : User Defined Encoder
Selected bitrate : 768 kBit/s
Quality : High
Add ID3 tag : No
Command line compressor : C:\Program Files\Exact Audio Copy\FLAC\FLAC.EXE
Additional command line options : -8 -V -T "ARTIST=%a" -T "TITLE=%t" -T "ALBUM=%g" -T "DATE=%y" -T "TRACKNUMBER=%n" -T "GENRE=%m" -T "COMMENT=%e" %s -o %d
TOC of the extracted CD
Track | Start | Length | Start sector | End sector
---------------------------------------------------------
1 | 0:00.00 | 3:30.21 | 0 | 15770
2 | 3:30.21 | 5:02.39 | 15771 | 38459
3 | 8:32.60 | 4:10.37 | 38460 | 57246
4 | 12:43.22 | 2:59.33 | 57247 | 70704
5 | 15:42.55 | 4:15.64 | 70705 | 89893
6 | 19:58.44 | 4:06.30 | 89894 | 108373
7 | 24:04.74 | 3:52.20 | 108374 | 125793
8 | 27:57.19 | 3:40.32 | 125794 | 142325
9 | 31:37.51 | 2:56.35 | 142326 | 155560
10 | 34:34.11 | 2:34.52 | 155561 | 167162
11 | 37:08.63 | 2:32.43 | 167163 | 178605
Range status and errors
Peak level 100.0 %
Range quality 100.0 %
Copy CRC FF9F34CE
Copy OK
No errors occurred
AccurateRip summary
Track 5 accurately ripped (confidence 1) [491510A5]
1 track(s) accurately ripped
10 track(s) not present in the AccurateRip database
End of status report
Також на Толоці Ви можете завантажити:
Файно - І та любов (2006) [MP3] | Rock

Якщо Ви справді бажаєте підтримати українське - після прослуховування, якщо музика вам сподобалась, придбайте ліцензійний диск. Підтримаймо вітчизняних виконавців!


Срібний реліз (на рейтинг впливає 50% завантаженого)
 Трекер:    Зареєстрований   

Завантажити / скачати українську музику



відео для новачків



 Зареєстрований:   2010-10-13 18:15
 Розмір:   278 MB 
 Оцінка музики:   9.9/10 (Голосів: 9)
   
bot 
робот


З нами з: 30.09.07
Востаннє: 26.05.05
Повідомлень: 16003

2010-09-15 19:18  
iwan wan 
VIP


З нами з: 01.10.09
Востаннє: 06.12.16
Повідомлень: 1760

2010-09-15 19:22  
Згодом ще викладу в мп3
dzhola 
Частий відвідувач


З нами з: 07.09.09
Востаннє: 20.11.16
Повідомлень: 41

2010-09-19 18:20  
от же ж шустро працюють Happy
не встиг, я не встиг....Sad (1)

але й так - дякую! Happy

iwan wan 
VIP


З нами з: 01.10.09
Востаннє: 06.12.16
Повідомлень: 1760

2010-09-20 17:11  
dzhola можете підтримати роздачу
iwan wan 
VIP


З нами з: 01.10.09
Востаннє: 06.12.16
Повідомлень: 1760

2010-10-13 18:15  
Причина перезалиття торент файла: Випадково видалив торент файл, скачав торент файл заново було відсутньо 2 процета , а ще ніхто не завантажив.
fox846 
Новенький


З нами з: 26.09.10
Востаннє: 02.10.16
Повідомлень: 1

2015-01-09 19:59  
дуже гарна група, 8 з 10 Happy
Ваш часовий пояс: GMT + 2 Години

Нова тема   Відповісти