Завантажити та скачати торренти українською


Сокира Перуна - Колекція (6 альбомів) (2000-2010) [FLAC] | RAC WP Pagan Metal

Нові коментарі

Нова тема   Відповісти
Останній раз роздавалося Myfordownloads (2016-10-01)
Автор Повідомлення
Xopc 
Частий відвідувач


З нами з: 22.02.09
Востаннє: 07.11.16
Повідомлень: 42

2010-09-12 10:24  
Сокира Перуна - Колекція (6 альбомів) (2000-2010) [FLAC] | RAC / Pagan Metal


Стиль: RAC WP Pagan Metal
Країна, місто: Україна, Київ
Сайти:
Виконавці:
А. - вокал, А. Г. - гітара, А. П. -гітара, А. Ш. - бас, C.- барабани
Альбоми:
    2000 - Очi Сповненi Гнiву


    01 - Останнiй Крок
    02 - Украiнська Вендета
    03 - White Power Skinheads
    04 - RAC
    05 - Украiнський Патрiот
    06 - Незгасне Полум`я Слави
    07 - Нарождений Перемагати
    08 - Сокира Перуна
    09 - Залишайся Бiлим
    10 - Бiй Тривае
    11 - Очi, Сповненi Гнiву

    Тривалість альбому: 00:56:35
    Мова альбому: українська
    Бітрейт: 1040кб/с
    Видавець: Hush Sound Studio
    Log
    Exact Audio Copy V0.99 prebeta 4 from 23. January 2008

    Отчёт EAC об извлечении, выполненном 25. января 2010, 19:24

    Сокира Перуна / Очі, сповнені гніву

    Дисковод: PIONEER DVD-RW DVR-115D Adapter: 0 ID: 0

    Режим чтения : Достоверность
    Использование точного потока : Да
    Отключение кэша аудио : Да
    Использование указателей C2 : Нет

    Коррекция смещения при чтении : 48
    Способность читать области Lead-in и Lead-out : Нет
    Заполнение пропущенных сэмплов тишиной : Да
    Удаление блоков с тишиной в начале и конце : Нет
    При вычислениях CRC использовались нулевые сэмплы : Да
    Интерфейс : Встроенный Win32-интерфейс для Win NT/2000

    Выходной формат : Внутренние WAV-операции
    Формат сэмплов : 44.100 Гц; 16 бит; стерео

    TOC извлечённого CD

    Трек | Старт | Длительность | Начальный сектор | Конечный сектор
    ---------------------------------------------------------------------
    1 | 0:00.00 | 4:27.32 | 0 | 20056
    2 | 4:27.32 | 4:41.64 | 20057 | 41195
    3 | 9:09.21 | 4:54.70 | 41196 | 63315
    4 | 14:04.16 | 3:55.34 | 63316 | 80974
    5 | 17:59.50 | 2:47.56 | 80975 | 93555
    6 | 20:47.31 | 7:24.73 | 93556 | 126928
    7 | 28:12.29 | 5:40.57 | 126929 | 152485
    8 | 33:53.11 | 4:51.27 | 152486 | 174337
    9 | 38:44.38 | 6:06.08 | 174338 | 201795
    10 | 44:50.46 | 6:45.63 | 201796 | 232233
    11 | 51:36.34 | 5:00.00 | 232234 | 254733

    Характеристики диапазона извлечения и сообщения об ошибках

    Выбранный диапазон

    Имя файла D:\Музыка\Sokira Peryna - Ochy, Spovneny Hnivu\Sokira Peryna - Ochy, Spovneny Hnivu.wav

    Пиковый уровень 100.0 %
    Качество диапазона 100.0 %
    CRC копии E19F5213
    Копирование... OK

    Ошибок не произошло

    Конец отчёта
    2003 - Перунова Рать


    1. Intro - Pride Of Europe
    2. Hail The New Dawn
    3. Перунова Рать
    4. European Dream
    5. Ми З Тобою, Брате
    6. For All We Have And Are
    7. Під Прапором Перемоги
    8. Поранений Птах
    9. Zogland
    10. Лютий. Зимно
    11. Генерал
    12. Незгасне Полум'я Слави
    13. Тризна ч.1
    14. Тризна ч.2
    Тривалість: 01:04:35
    Мова: українська (3,5,7,8,10-14), англійська (1,2,4,6,9)
    Бітрейт: 1051кб/с
    Видавець: Eastside
    Log
    Exact Audio Copy V0.99 prebeta 4 from 23. January 2008

    EAC extraction logfile from 25. October 2010, 23:18

    Сокира Перуна / Перунова Рать

    Used drive : Optiarc DVD RW AD-7243S Adapter: 2 ID: 0

    Read mode : Secure
    Utilize accurate stream : Yes
    Defeat audio cache : Yes
    Make use of C2 pointers : No

    Read offset correction : 48
    Overread into Lead-In and Lead-Out : No
    Fill up missing offset samples with silence : Yes
    Delete leading and trailing silent blocks : No
    Null samples used in CRC calculations : Yes
    Used interface : Installed external ASPI interface

    Used output format : User Defined Encoder
    Selected bitrate : 768 kBit/s
    Quality : High
    Add ID3 tag : No
    Command line compressor : C:\Program Files\Exact Audio Copy\FLAC\FLAC.EXE
    Additional command line options : -6 -V -T "ARTIST=%a" -T "TITLE=%t" -T "ALBUM=%g" -T "DATE=%y" -T "TRACKNUMBER=%n" -T "GENRE=%m" -T "COMMENT=%e" %s -o %d

    TOC of the extracted CD

    Track | Start | Length | Start sector | End sector
    ---------------------------------------------------------
    1 | 0:00.00 | 2:39.44 | 0 | 11968
    2 | 2:39.44 | 3:38.30 | 11969 | 28348
    3 | 6:17.74 | 6:49.70 | 28349 | 59093
    4 | 13:07.69 | 6:26.36 | 59094 | 88079
    5 | 19:34.30 | 3:14.46 | 88080 | 102675
    6 | 22:49.01 | 4:42.48 | 102676 | 123873
    7 | 27:31.49 | 4:30.23 | 123874 | 144146
    8 | 32:01.72 | 5:55.10 | 144147 | 170781
    9 | 37:57.07 | 3:45.51 | 170782 | 187707
    10 | 41:42.58 | 4:07.31 | 187708 | 206263
    11 | 45:50.14 | 7:00.26 | 206264 | 237789
    12 | 52:50.40 | 5:25.45 | 237790 | 262209
    13 | 58:16.10 | 3:21.01 | 262210 | 277285
    14 | 61:37.11 | 2:58.24 | 277286 | 290659

    Range status and errors

    Selected range

    Filename E:\Сокира Перуна - Перунова Рать.wav

    Peak level 100.0 %
    Range quality 100.0 %
    Test CRC 5BB0F63C
    Copy CRC 5BB0F63C
    Copy OK

    No errors occurred

    AccurateRip summary

    Track 1 not present in database
    Track 2 not present in database
    Track 3 not present in database
    Track 4 not present in database
    Track 5 not present in database
    Track 6 not present in database
    Track 7 not present in database
    Track 8 not present in database
    Track 9 not present in database
    Track 10 not present in database
    Track 11 not present in database
    Track 12 not present in database
    Track 13 not present in database
    Track 14 not present in database

    None of the tracks are present in the AccurateRip database

    End of status report
    2006 - І Мертвим, І Живим, І Ненародженим


    01 - Честь Та Кров
    02 - Брати Мої
    03 - Очi, Сповненi Гнiву
    04 - 29 Сiчня
    05 - Народжений Перемагати
    06 - Останнiй Дракар
    07 - Я Назавжди Твiй
    08 - Вирiй
    09 - Вiтри Меж Мечiв
    10 - Дорога В Вальхаллу
    Тривалість альбому: 00:47:00
    Мова альбому: українська
    Бітрейт: 881кб/с
    Видавець: Patriot Production
    Log
    EAC extraction logfile from 18. September 2006, 16:40 for CD
    …i mertvym, i zhyvym, i nenarodenym… / Sokyra Peruna

    Used drive : Generic DVD-ROM Adapter: 2 ID: 0
    Read mode : Burst
    Read offset correction : 0
    Overread into Lead-In and Lead-Out : No

    Used output format : Internal WAV Routines
    44.100 Hz; 16 Bit; Stereo

    Other options :
    Fill up missing offset samples with silence : Yes
    Delete leading and trailing silent blocks : No
    Installed external ASPI interface

    Range status and errors
    Selected range
    Filename D:\Sokyra Peruna - i mertvym i zhyvym i nenarodenym (2006)\Various.wav

    Peak level 96.6 %
    CRC 2B950CA2
    Copy OK

    No errors occured

    End of status report
    2008 - Десять Полум'яних Рокiв (Сокира Перуна Tribute)


    01 - KRODA Wind of Change
    02 - ANTISYSTEM We are with you Brother
    03 - KIBORG For all we have and are
    04 - BRIGADE M Slovjanin
    05 - ODESSA Svjatoslav
    06 - KIBORG Son of Ukraine
    07 - RUSISH Ukrainian Patriot
    08 - ROSSIA Last drakkar
    09 - THE CHEBURASHKAS Cossack
    10 - LUT Rapper
    11 - DEAD CHRIST CULT Son of Ukraine
    12 - SVARGA Nordic Winter
    13 - BRIGADE M Ukrainian Kvas
    Тривалість альбому: 00:53:14
    Мова альбому: 1,2,4,5 - українська; 3,6 - російська; все інше - англійська
    Бітрейт: 1067кб/с
    Видавець: Shakira Peruna Records
    Log
    Exact Audio Copy V0.99 prebeta 4 from 23. January 2008

    Отчёт EAC об извлечении, выполненном 12. апреля 2009, 13:16

    Various / Десять Полум'яних Рокiв (Сокира Перуна Tribute)

    Дисковод: PIONEER DVD-RW DVR-115D Adapter: 0 ID: 0

    Режим чтения : Достоверность
    Использование точного потока : Да
    Отключение кэша аудио : Да
    Использование указателей C2 : Нет

    Коррекция смещения при чтении : 48
    Способность читать области Lead-in и Lead-out : Нет
    Заполнение пропущенных сэмплов тишиной : Да
    Удаление блоков с тишиной в начале и конце : Нет
    При вычислениях CRC использовались нулевые сэмплы : Да
    Интерфейс : Встроенный Win32-интерфейс для Win NT/2000

    Выходной формат : Внутренние WAV-операции
    Формат сэмплов : 44.100 Гц; 16 бит; стерео

    TOC извлечённого CD

    Трек | Старт | Длительность | Начальный сектор | Конечный сектор
    ---------------------------------------------------------------------
    1 | 0:00.00 | 6:15.05 | 0 | 28129
    2 | 6:15.05 | 3:11.28 | 28130 | 42482
    3 | 9:26.33 | 4:16.03 | 42483 | 61685
    4 | 13:42.36 | 4:37.39 | 61686 | 82499
    5 | 18:20.00 | 3:20.73 | 82500 | 97572
    6 | 21:40.73 | 3:26.08 | 97573 | 113030
    7 | 25:07.06 | 2:48.02 | 113031 | 125632
    8 | 27:55.08 | 3:59.20 | 125633 | 143577
    9 | 31:54.28 | 3:59.12 | 143578 | 161514
    10 | 35:53.40 | 6:32.24 | 161515 | 190938
    11 | 42:25.64 | 3:03.09 | 190939 | 204672
    12 | 45:28.73 | 4:25.16 | 204673 | 224563
    13 | 49:54.14 | 3:20.22 | 224564 | 239585

    Характеристики диапазона извлечения и сообщения об ошибках

    Выбранный диапазон

    Имя файла D:\Документы\Моя музыка\Various - Десять Полум'яних Рокiв (Сокира Перуна Tribute)\Various - Десять Полум'яних Рокiв (Сокира Перуна Tribute).wav

    Пиковый уровень 94.4 %
    Качество диапазона 100.0 %
    CRC копии BD88D28B
    Копирование... OK

    Ошибок не произошло

    Конец отчёта
    2010 - Invictus


    01. Січ (Sich) (5:05)
    02. Punch distance (4:58)
    03. Black shepherd (3:16 )
    04. True till death (2:58)
    05. Останній бунт (Last riot) (3:35)
    06. Bars (3:29)
    07. Відчуй силу (Feel the power) (3:21)
    08. Ні толерантності (No tolerance) (4:17)
    09. Invictus (2:56)
    10. Байда (Baida) (4:03)
    11. Братья в Вальхалле (Brothers in Valhalla) (4:40)
    12. Відстань удару (Punch distance) (bonus) (4:39)
    13. True till death (bonus) (2:58)
    14. Грати (Bars) (bonus) (3:28)
    15. Invictus (bonus) (2:53)
    Тривалість альбому: 56:43
    Мова альбому: 1,3,5,7,8,10,12,13,14,15 - українська; 2,4,6,9 - англійська, 11 - російська
    Бітрейт: 990-1116кб/с
    Видавець: PC Records
    Log
    EAC extraction logfile from 4. March 2010, 15:03 for CD
    Сокира Перуна / Invictus

    Used drive : _NEC DVD_RW ND-4550A Adapter: 2 ID: 1
    Read mode : Secure with NO C2, accurate stream, disable cache
    Read offset correction : 48
    Overread into Lead-In and Lead-Out : No

    Used output format : C:\Program Files (x86)\Exact Audio Copy\Flac\flac.exe (User Defined Encoder)
    128 kBit/s
    Additional command line options : -5 -V -T "ARTIST=%a" -T "TITLE=%t" -T "ALBUM=%g" -T "DATE=%y" -T "TRACKNUMBER=%n" -T "GENRE=%m" -T "COMMENT=EAC FLAC -5" %s

    Other options :
    Fill up missing offset samples with silence : Yes
    Delete leading and trailing silent blocks : No
    Native Win32 interface for Win NT & 2000

    Track 1
    Filename G:\Music\!R-Music\Сокира Перуна - Дискография 1998 - 2008\2010 - Invictus\01. Сокира Перуна – Січ.wav

    Pre-gap length 0:00:02.00

    Peak level 99.2 %
    Track quality 99.9 %
    Test CRC 26CF69AC
    Copy CRC 26CF69AC
    Copy OK

    Track 2
    Filename G:\Music\!R-Music\Сокира Перуна - Дискография 1998 - 2008\2010 - Invictus\02. Сокира Перуна – Punch distance.wav

    Pre-gap length 0:00:04.00

    Peak level 99.3 %
    Track quality 100.0 %
    Test CRC 265E3391
    Copy CRC 265E3391
    Copy OK

    Track 3
    Filename G:\Music\!R-Music\Сокира Перуна - Дискография 1998 - 2008\2010 - Invictus\03. Сокира Перуна – Black shepherd.wav

    Pre-gap length 0:00:04.00

    Peak level 99.4 %
    Track quality 100.0 %
    Test CRC 15BEC04C
    Copy CRC 15BEC04C
    Copy OK

    Track 4
    Filename G:\Music\!R-Music\Сокира Перуна - Дискография 1998 - 2008\2010 - Invictus\04. Сокира Перуна – True till death.wav

    Pre-gap length 0:00:04.00

    Peak level 99.3 %
    Track quality 100.0 %
    Test CRC 5219E7F9
    Copy CRC 5219E7F9
    Copy OK

    Track 5
    Filename G:\Music\!R-Music\Сокира Перуна - Дискография 1998 - 2008\2010 - Invictus\05. Сокира Перуна – Останній бунт.wav

    Pre-gap length 0:00:04.00

    Peak level 99.3 %
    Track quality 100.0 %
    Test CRC 543CC2B6
    Copy CRC 543CC2B6
    Copy OK

    Track 6
    Filename G:\Music\!R-Music\Сокира Перуна - Дискография 1998 - 2008\2010 - Invictus\06. Сокира Перуна – Bars.wav

    Pre-gap length 0:00:04.00

    Peak level 99.3 %
    Track quality 100.0 %
    Test CRC A33BE353
    Copy CRC A33BE353
    Copy OK

    Track 7
    Filename G:\Music\!R-Music\Сокира Перуна - Дискография 1998 - 2008\2010 - Invictus\07. Сокира Перуна – Відчуй силу.wav

    Pre-gap length 0:00:04.00

    Peak level 99.3 %
    Track quality 100.0 %
    Test CRC 28E952E2
    Copy CRC 28E952E2
    Copy OK

    Track 8
    Filename G:\Music\!R-Music\Сокира Перуна - Дискография 1998 - 2008\2010 - Invictus\08. Сокира Перуна – Ні толерантності.wav

    Pre-gap length 0:00:04.00

    Peak level 100.0 %
    Track quality 100.0 %
    Test CRC E27BC3C4
    Copy CRC E27BC3C4
    Copy OK

    Track 9
    Filename G:\Music\!R-Music\Сокира Перуна - Дискография 1998 - 2008\2010 - Invictus\09. Сокира Перуна – Invictus.wav

    Pre-gap length 0:00:04.00

    Peak level 99.3 %
    Track quality 100.0 %
    Test CRC 2C0C3407
    Copy CRC 2C0C3407
    Copy OK

    Track 10
    Filename G:\Music\!R-Music\Сокира Перуна - Дискография 1998 - 2008\2010 - Invictus\10. Сокира Перуна – Байда.wav

    Pre-gap length 0:00:04.00

    Peak level 99.4 %
    Track quality 99.9 %
    Test CRC 223CE9F9
    Copy CRC 223CE9F9
    Copy OK

    Track 11
    Filename G:\Music\!R-Music\Сокира Перуна - Дискография 1998 - 2008\2010 - Invictus\11. Сокира Перуна – Братья в Вальхалле.wav

    Pre-gap length 0:00:04.00

    Peak level 99.3 %
    Track quality 100.0 %
    Test CRC 8FF39776
    Copy CRC 8FF39776
    Copy OK

    Track 12
    Filename G:\Music\!R-Music\Сокира Перуна - Дискография 1998 - 2008\2010 - Invictus\12. Сокира Перуна – Відстань удару (bonus).wav

    Pre-gap length 0:00:04.00

    Peak level 99.3 %
    Track quality 100.0 %
    Test CRC F21D3708
    Copy CRC F21D3708
    Copy OK

    Track 13
    Filename G:\Music\!R-Music\Сокира Перуна - Дискография 1998 - 2008\2010 - Invictus\13. Сокира Перуна – True till death (bonus).wav

    Pre-gap length 0:00:04.00

    Peak level 99.3 %
    Track quality 99.9 %
    Test CRC 15BE87CC
    Copy CRC 15BE87CC
    Copy OK

    Track 14
    Filename G:\Music\!R-Music\Сокира Перуна - Дискография 1998 - 2008\2010 - Invictus\14. Сокира Перуна – Грати (bonus).wav

    Pre-gap length 0:00:04.00

    Peak level 99.3 %
    Track quality 99.9 %
    Test CRC B500CF1E
    Copy CRC B500CF1E
    Copy OK

    Track 15
    Filename G:\Music\!R-Music\Сокира Перуна - Дискография 1998 - 2008\2010 - Invictus\15. Сокира Перуна – Invictus (bonus).wav

    Pre-gap length 0:00:04.00

    Peak level 99.3 %
    Track quality 100.0 %
    Test CRC DC84DE6D
    Copy CRC DC84DE6D
    Copy OK

    No errors occured

    End of status report
    2010 - Слово


    1. Темнi Кургани
    2. Славянские Братья
    3. Солдат
    4. Ермак
    5. Моя Доля
    6. Ты Выросла
    7. Не Пий, Козаче
    8. Ключ
    9. Гомонiла Україна
    10. Боль О Друге
    Тривалість: 00:48:05
    Мова: українська (1,3,5,7,9), російська (2,4,6,8,10)
    Бітрейт: 842кб/с
    Видавець: Conbrio Production
    Log
    Exact Audio Copy V0.99 prebeta 4 from 23. January 2008

    Отчёт EAC об извлечении, выполненном 21. августа 2010, 17:47

    Сокира Перуна / Слово

    Дисковод: HL-DT-STDVDRAM GSA-H10N Adapter: 0 ID: 0

    Режим чтения : Достоверность
    Использование точного потока : Да
    Отключение кэша аудио : Да
    Использование указателей C2 : Нет

    Коррекция смещения при чтении : 667
    Способность читать области Lead-in и Lead-out : Нет
    Заполнение пропущенных сэмплов тишиной : Да
    Удаление блоков с тишиной в начале и конце : Нет
    При вычислениях CRC использовались нулевые сэмплы : Да
    Интерфейс : Встроенный Win32-интерфейс для Win NT/2000

    Выходной формат : Внутренние WAV-операции
    Формат сэмплов : 44.100 Гц; 16 бит; стерео

    TOC извлечённого CD

    Трек | Старт | Длительность | Начальный сектор | Конечный сектор
    ---------------------------------------------------------------------
    1 | 0:00.00 | 5:24.12 | 0 | 24311
    2 | 5:24.12 | 3:02.70 | 24312 | 38031
    3 | 8:27.07 | 5:38.71 | 38032 | 63452
    4 | 14:06.03 | 5:50.00 | 63453 | 89702
    5 | 19:56.03 | 4:03.65 | 89703 | 107992
    6 | 23:59.68 | 4:11.25 | 107993 | 126842
    7 | 28:11.18 | 5:31.47 | 126843 | 151714
    8 | 33:42.65 | 4:46.09 | 151715 | 173173
    9 | 38:28.74 | 3:16.42 | 173174 | 187915
    10 | 41:45.41 | 5:55.63 | 187916 | 214603

    Характеристики диапазона извлечения и сообщения об ошибках

    Выбранный диапазон

    Имя файла D:\01-TEMP-10\MP3\Сокира Перуна 2010 Слово.wav

    Пиковый уровень 100.0 %
    Качество диапазона 99.9 %
    CRC копии 85B62E6E
    Копирование... OK

    Ошибок не произошло

    AccurateRip: сводка

    Трек 1 нет в базе данных
    Трек 2 нет в базе данных
    Трек 3 нет в базе данных
    Трек 4 нет в базе данных
    Трек 5 нет в базе данных
    Трек 6 нет в базе данных
    Трек 7 нет в базе данных
    Трек 8 нет в базе данных
    Трек 9 нет в базе данных
    Трек 10 нет в базе данных

    Ни одного трека нет в базе AccurateRip

    Конец отчёта

Тривалість: 04:21:15
Мова: українська, російська, англійська
Аудіо-кодек: FLAC
Бітрейт: 842-1116 кб/с
Джерело: інтернет
Додаткова інформація
На початку 90-х у Києві були такі хейткор-гурти: Скорбь i ZDV66/1. Потім з різних причин їх не стало, і музиканти зібрались разом. Бас-гітарист вийшов із тюрми, барабанник Дмитро повернувся із армії, і вони об'єднались із гітаристом Арсенієм та вокалістом з метою пропаганди правих ідей створили White Power рок-гурт. Він за традицією отримав назву Бульдог. Відіграли кілька концертів, з них один — у Москві.
Згодом виявилось, що вокаліст і басист «бавляться» наркотою, тому їх вирішено відсіяти.
Офіційною датою народження Сокири Перуна вважається 26.04.1998, коли на концерті «Рудольф Гесс Меморіал» Арсеній зі сцени оголосив про перейменування Бульдога на Сокиру Перуна.
Подальша історія та зміни складу не розголошуються з причини радикальності та протисистемності гурту. Відомо тільки, що Арсеній тепер тільки співає, а барабанника Дмитра в складі тепер немає.
На концерті "Germanic-Slavonic Brotherhood Fest" відбулася презентація нового альбому гурту - Invictus. Неочікуване на ньому - пісні англійською та одна російською.





Якщо Ви справді бажаєте підтримати українське - після прослуховування, якщо музика вам сподобалась, придбайте ліцензійний диск. Підтримаймо вітчизняних виконавців!


Золотий реліз (завантажене не впливає на рейтинг)
 Трекер:    Зареєстрований   

Завантажити / скачати українську музику



відео для новачків



 Зареєстрований:   2010-10-31 08:02
 Розмір:   2.33 GB 
 Оцінка музики:   9.7/10 (Голосів: 22)
   
Lev 
VIP


З нами з: 14.10.09
Востаннє: 09.12.16
Повідомлень: 1819

2010-09-12 12:25  
гарним тоном було б спитати думку авторів інших роздач Сокири в лосях, але гарного тону зараз, як і багато чого іншого, вдень з вогнем.

вже не кажучи про те, що "Слово" у лузлес викладати, м"яко кажучи, ранувато - Арсеній таке ненавидить.

ssTAss 
Модератор музики


З нами з: 05.07.08
Востаннє: 10.12.16
Повідомлень: 10950

2010-09-13 00:01  
Xopc написано:
Історя: На початку 90-х

це помістити в стрічку "Додаткова інформація"
і де поділись стрічки з загальною інформацією (мова, кодек, бітрейт)?
дописати
також під спойлерами до кожного альбому додати обкладинку і видавця

Lev
та чого Ви? хоче людина поділитись матеріалом, а Ви одразу "наїжджаєте" Wink (2)

Lev 
VIP


З нами з: 14.10.09
Востаннє: 09.12.16
Повідомлень: 1819

2010-09-13 11:24  
ssTAss написано:
та чого Ви? хоче людина поділитись матеріалом, а Ви одразу "наїжджаєте"


тому що це хоч і легально, але виглядає нечемно.

Xopc 
Частий відвідувач


З нами з: 22.02.09
Востаннє: 07.11.16
Повідомлень: 42

2010-09-13 19:39  
ssTAss написано:

це помістити в стрічку "Додаткова інформація"
і де поділись стрічки з загальною інформацією (мова, кодек, бітрейт)?
дописати
також під спойлерами до кожного альбому додати обкладинку і видавця

1 зробив
2 є після списку пісень кожного альбому
3 зробив
Lev жодна моя роздача не є копією того що вже є на трекері...а на рахунок Слова то воно в лосі вже з 4 тижні по інеті ходить..))

Lev 
VIP


З нами з: 14.10.09
Востаннє: 09.12.16
Повідомлень: 1819

2010-09-13 20:11  
Xopc написано:
а на рахунок Слова то воно в лосі вже з 4 тижні по інеті ходить..))


воно ходить лише "завдяки" рутрекеру.
я знаю, що жоден контент більш-менш відомої групи в наш час нереально приховати, але якщо сама група проти, то треба це враховувати хоча б там, де це можливо.

Xopc написано:
Lev жодна моя роздача не є копією того що вже є на трекері


мене не цікавить, чи ви самі ріпали ці диски, чи качали.
мене цікавить інша сторона питання, якщо ви цього досі не усвідомили.

ssTAss 
Модератор музики


З нами з: 05.07.08
Востаннє: 10.12.16
Повідомлень: 10950

2010-09-14 01:01  
Xopc написано:
2 є після списку пісень кожного альбому

бачу, але потрібна і загальна інформація
додав стрічки... заповніть загальну тривалість
Lev, може досить "грузити", га? Vampire-like teeth

Xopc 
Частий відвідувач


З нами з: 22.02.09
Востаннє: 07.11.16
Повідомлень: 42

2010-09-14 16:33  
ssTAss написано:
додав стрічки... заповніть загальну тривалість

дякую.. заповнив

i-gor 
Новенький


З нами з: 15.03.09
Востаннє: 08.12.16
Повідомлень: 4

2010-10-16 11:57  
де можна знайти решту альбомів в лосслес-якості?
Xopc 
Частий відвідувач


З нами з: 22.02.09
Востаннє: 07.11.16
Повідомлень: 42

2010-10-16 20:55  
решти нема в лосях
Xopc 
Частий відвідувач


З нами з: 22.02.09
Востаннє: 07.11.16
Повідомлень: 42

2010-10-31 08:06  
УВАГА
Роздачу ОНОВЛЕНО! Доданий альбом Перунова Рать!

Wolf1488 
VIP


З нами з: 20.10.09
Востаннє: 09.12.16
Повідомлень: 429

2010-10-31 13:24  
Дякую!качну Перунову рать,ще б знайти Європейську єдність у лосссес...
Tarasyk 
Відео Гуртом - фільмокрай
Відео Гуртом - фільмокрай


З нами з: 26.08.09
Востаннє: 10.12.16
Повідомлень: 5974

2010-10-31 14:49  
Xopc, тільки зміни назву. Напиши Дискографія (6 альбомів), або краще Колекція (6 альбомів).
ANDROSHA 
Частий відвідувач


З нами з: 13.09.09
Востаннє: 09.12.16
Повідомлень: 38

2011-10-09 14:46  
Автор будласка виправте кодування теґів, .cue файлів та .log файлів в прийнятний для всіх ОС формат UTF-8, а не формат Windows-1251, який не всі плеєри сприймають на Linux та MACOSx
evilmetaldon 
Свій


З нами з: 29.10.12
Востаннє: 29.06.14
Повідомлень: 56

2013-08-07 12:41  
Цитата:
Скорбь

Скорбота

ARTURITCH 
Новенький


З нами з: 28.04.14
Востаннє: 09.07.16
Повідомлень: 1

2015-08-05 12:34  
Хлопці, станьте на роздачу, не будьте москалями!
Ваш часовий пояс: GMT + 2 Години

Нова тема   Відповісти