Завантажити та скачати торренти українською


Blood of Kingu - De Occulta Philosophia (2007) [FLAC] | Black Metal

Нові коментарі

Нова тема   Відповісти
Останній раз роздавалося alenas2001 (2015-05-01)
Автор Повідомлення
Lev 
VIP


З нами з: 14.10.09
Востаннє: 09.12.16
Повідомлень: 1819

2010-09-11 14:13  
Blood of Kingu - De Occulta Philosophia (2007) [FLAC] | Black Metal



Стиль: Black Metal
Країна, місто: Україна, Харків
Сайти:

Видавець: Supernal Music
Виконавці:
Роман Саєнко - всі інструменти, вся музика
Пісні:
    01. Incoarika Incognita (01:10)
    02. Your Blood, Nubia! Your Power, Egypt! (04:28)
    03. Mummu Tiamat (04:00)
    04. Stronghold of Megaliths, Thorns and Human Bones (04:35)
    05. Slaughter of Shudras (00:44)
    06. Lair of Night Abzu (05:27)
    07. Black Spectral Wings of Shaman (04:45)
    08. Vajtarani (00:14)
    09. Chambers of Inpu-sub (03:03)
    log
    Exact Audio Copy V0.99 prebeta 4 from 23. January 2008

    EAC extraction logfile from 7. September 2008, 21:59

    Blood Of Kingu / De Occulta Philosophia

    Used drive : Optiarc DVD RW AD-7203S Adapter: 2 ID: 0

    Read mode : Secure
    Utilize accurate stream : Yes
    Defeat audio cache : Yes
    Make use of C2 pointers : No

    Read offset correction : 48
    Overread into Lead-In and Lead-Out : No
    Fill up missing offset samples with silence : Yes
    Delete leading and trailing silent blocks : No
    Null samples used in CRC calculations : Yes
    Used interface : Installed external ASPI interface

    Used output format : User Defined Encoder
    Selected bitrate : 32 kBit/s
    Quality : High
    Add ID3 tag : No
    Command line compressor : C:\Program Files\Exact Audio Copy\FLAC.EXE
    Additional command line options : -V -8 -T "artist=%a" -T "title=%t" -T "album=%g" -T "date=%y" -T "tracknumber=%n" -T "genre=%m" %s

    TOC of the extracted CD

    Track | Start | Length | Start sector | End sector
    ---------------------------------------------------------
    1 | 0:00.00 | 1:10.02 | 0 | 5251
    2 | 1:10.02 | 4:28.71 | 5252 | 25422
    3 | 5:38.73 | 4:00.15 | 25423 | 43437
    4 | 9:39.13 | 4:35.41 | 43438 | 64103
    5 | 14:14.54 | 0:44.63 | 64104 | 67466
    6 | 14:59.42 | 5:27.47 | 67467 | 92038
    7 | 20:27.14 | 4:45.26 | 92039 | 113439
    8 | 25:12.40 | 0:14.29 | 113440 | 114518
    9 | 25:26.69 | 3:03.39 | 114519 | 128282

    Range status and errors

    Selected range

    Filename D:\Lossless2\Alex\Blood Of Kingu - De Occulta Philosophia (2007)\Blood Of Kingu - De Occulta Philosophia.wav

    Peak level 93.6 %
    Range quality 99.9 %
    Copy CRC BE17122A
    Copy OK

    No errors occurred

    AccurateRip summary

    Track 1 not present in database
    Track 2 not present in database
    Track 3 not present in database
    Track 4 not present in database
    Track 5 not present in database
    Track 6 not present in database
    Track 7 not present in database
    Track 8 not present in database
    Track 9 not present in database

    None of the tracks are present in the AccurateRip database

    End of status report

Тривалість: 00:28:31
Мова: нема
Аудіо-кодек: FLAC
Бітрейт: 1034 кб/с
Джерело: Accurate Rip оригінального диску (інший торрент-трекер)
Додаткова інформація:
Кінгу - бог у вавілоно-аккадській міфології, він був вбитий богом Мардуком, щоб з його крові створити людство.

Шаманський блек-метал від Романа Саєнка (Drudkh, Hate Forest, Dark Ages). Альбом натхнений шумерською, єгипетською та індо-арійською міфологією.

Роздача має комплект високоякісних сканів!




Якщо Ви справді бажаєте підтримати українське - після прослуховування, якщо музика вам сподобалась, придбайте ліцензійний диск. Підтримаймо вітчизняних виконавців!


Срібний реліз (на рейтинг впливає 50% завантаженого)
 Трекер:    Зареєстрований   

Завантажити / скачати українську музику



відео для новачків



 Зареєстрований:   2010-09-11 14:13
 Розмір:   234 MB 
 Оцінка музики:   10/10 (Голосів: 4)
   
Lev 
VIP


З нами з: 14.10.09
Востаннє: 09.12.16
Повідомлень: 1819

2010-09-11 22:50  
різні видання альбому

Lev 
VIP


З нами з: 14.10.09
Востаннє: 09.12.16
Повідомлень: 1819

2011-01-20 10:22  
вийшов обмежений тираж альбому на вінілі

замовляти тут
http://www.fog-music-shop.com/shop/blood-kingu-occulta-philosophia-12lp-p-1576.html

Ваш часовий пояс: GMT + 2 Години

Нова тема   Відповісти