Завантажити та скачати торренти українською


Infinite Tales - Only The Begining (2009) [FLAC] | Symphonic Gothic Metal

Нові коментарі

Нова тема   Відповісти
Останній раз роздавалося orTep (2013-08-31)
Автор Повідомлення
Xopc 
Частий відвідувач


З нами з: 22.02.09
Востаннє: 07.11.16
Повідомлень: 42

2010-09-11 11:30  
Infinite Tales - Only The Begining (2009) [FLAC] | Symphonic Gothic Metal



Стиль: Symphonic Gothic Metal
Країна, місто: Україна, Київ
Сайти:
Видавець: Rostok Records
Виконавці:
Glorf - (I. Довготелесь) – гітара
Imtrid - (Д. Бондаренко) – бас
Kiwi - (В. Ревко) - вокал
Zolik - (З. Форкош) - вокал
Nazar - (Н. Устянник) – вокал
Perevod - (A. Перевочік) - драм

Максим MORTON Пасічник - звуковий продюсер
Ірина Моісеєва - менеджер
Евгеній Корольов - концертний звукорежисер
Пісні:
    1 - Intro. Infinite Tales (2:22)
    2 - Amoxicillin...Extermination (4:38)
    3 - Running Away (5:39)
    4 - Point of no Return (4:51)
    5 - No War for this Century (5:14)
    6 - Wings (4:33)
    7 - DethTale (2:37)
    8 - Bridge. Going Down (4:10)
    9 - The Night at the Cemetery (1:47)
    10 - Waltz in the Flame (4:42)
    11 - BloodyField (4:21)
    12 - Little more Anger (4:08)
    13 - The Warehouse will be your Tomb, Chief (4:06)
    14 - Outro. Only The Beginning... (3:37)

Тривалість: 00:57:21
Мова: ангілійська
Аудіо-кодек: FLAC
Бітрейт: 1024 кб/с
Джерело: інтернет
Log
Exact Audio Copy V0.99 prebeta 5 from 4. May 2009

EAC extraction logfile from 29. May 2010, 11:24

Infinite Tales / Only The Beginning

Used drive : PHILIPS SPD2414T Adapter: 2 ID: 0

Read mode : Secure
Utilize accurate stream : Yes
Defeat audio cache : Yes
Make use of C2 pointers : No

Read offset correction : 6
Overread into Lead-In and Lead-Out : No
Fill up missing offset samples with silence : Yes
Delete leading and trailing silent blocks : No
Null samples used in CRC calculations : Yes
Used interface : Native Win32 interface for Win NT & 2000

Used output format : Internal WAV Routines
Sample format : 44.100 Hz; 16 Bit; Stereo

TOC of the extracted CD

Track | Start | Length | Start sector | End sector
---------------------------------------------------------
1 | 0:00.00 | 2:24.64 | 0 | 10863
2 | 2:24.64 | 4:40.18 | 10864 | 31881
3 | 7:05.07 | 5:41.58 | 31882 | 57514
4 | 12:46.65 | 4:53.72 | 57515 | 79561
5 | 17:40.62 | 5:16.03 | 79562 | 103264
6 | 22:56.65 | 4:35.09 | 103265 | 123898
7 | 27:31.74 | 2:39.58 | 123899 | 135881
8 | 30:11.57 | 4:12.74 | 135882 | 154855
9 | 34:24.56 | 1:49.02 | 154856 | 163032
10 | 36:13.58 | 4:44.43 | 163033 | 184375
11 | 40:58.26 | 4:23.34 | 184376 | 204134
12 | 45:21.60 | 4:10.53 | 204135 | 222937
13 | 49:32.38 | 4:08.55 | 222938 | 241592
14 | 53:41.18 | 3:39.74 | 241593 | 258091

Range status and errors

Selected range

Filename C:\Users\Lionua\Desktop\Infinite Tales - Only The Beginning.wav

Peak level 99.3 %
Range quality 100.0 %
Copy CRC 8818D2C8
Copy OK

No errors occurred

AccurateRip summary

Track 1 not present in database
Track 2 not present in database
Track 3 not present in database
Track 4 not present in database
Track 5 not present in database
Track 6 not present in database
Track 7 not present in database
Track 8 not present in database
Track 9 not present in database
Track 10 not present in database
Track 11 not present in database
Track 12 not present in database
Track 13 not present in database
Track 14 not present in database

None of the tracks are present in the AccurateRip database

End of status report
Також на Толоці Ви можете знайти:
Infinite Tales - Drop of Dreams (EP) (2008) [MP3]


Срібний реліз (на рейтинг впливає 50% завантаженого)
 Трекер:    Зареєстрований   

Завантажити / скачати українську музику



відео для новачків



 Зареєстрований:   2010-09-11 11:30
 Розмір:   429 MB 
 Оцінка музики:   9.7/10 (Голосів: 6)
   
Forestelf 
VIP


З нами з: 06.02.09
Востаннє: 21.01.16
Повідомлень: 894

2010-09-11 12:06  
Дуже дякую.
ssTAss 
Модератор музики


З нами з: 05.07.08
Востаннє: 05.12.16
Повідомлень: 10939

2010-09-11 12:36  
Xopc написано:
Джерело:

заповніть стрічку

Tarasyk 
Відео Гуртом - фільмокрай
Відео Гуртом - фільмокрай


З нами з: 26.08.09
Востаннє: 28.11.16
Повідомлень: 5972

2010-09-11 14:28  
А також прохання надати під спойлером вміст лог-файлу
Lev 
VIP


З нами з: 14.10.09
Востаннє: 05.12.16
Повідомлень: 1819

2010-09-11 14:42  
Xopc написано:

Glorf - (I. Dovgoteles) – guitars
Imtrid - (D. Bondarenko) – bass
Kiwi - (V. Revko) - Vocals
Zolik - (Z. Forkosh) - Vocals
Nazar - (N. Ustyannik) – Guitars
Perevod - (A. Perevodchik) - Drums/Percussion

Максим MORTON Пасечник - Sound Producer
Ирина Моисеева - Manager
Евгений Королев - концертний звукореж


напишіть українською.

Tarasyk 
Відео Гуртом - фільмокрай
Відео Гуртом - фільмокрай


З нами з: 26.08.09
Востаннє: 28.11.16
Повідомлень: 5972

2010-09-12 09:08  
Xopc, і тут видавця не вказали - прохання додати.
VIgor84 
Частий відвідувач


З нами з: 31.12.10
Востаннє: 05.12.16
Повідомлень: 32

2011-08-02 11:36  
Агов люди, де швидкість?
Ваш часовий пояс: GMT + 2 Години

Нова тема   Відповісти