Завантажити та скачати торренти українською


Турбо Техно Саунд - Помандруй зі мною (1997) [APE] | Eurodance

Нові коментарі

Нова тема   Відповісти
Автор Повідомлення
iwan wan 
VIP


З нами з: 01.10.09
Востаннє: 06.12.16
Повідомлень: 1760

2010-09-10 17:44  
Турбо Техно Саунд - Помандруй зі мною (1997) [APE] | Eurodance



Стиль: Eurodance
Країна, місто: Україна, Івано-Франківськ

Видавець: NAC
Виконавці:
Тарас Пушик
Олена Дюлова

Пісні:
    1) Помандруй зі мною
    2) Підіймались руки вгору (аркан)
    3) Це закон, а не кара
    4) Відчай
    5) Треба вище!
    6) Десь далеко...
    7) Але прийде до мене тепле літо
    8) Моє життя
    9) Зів'яли квіти (Відчай mix)


Тривалість: 00:40:28
Мова: українська
Бітрейт: 863 кб/с
Джерело: Інший трекер
Додаткова інформація:
Івано-Франківський «Турбо-Техно-Саунд» починався в 1992 році з данс-гурту «Турбо», що спочатку танцював під чужі композиції, згодом репував під власні.

На Донецькому фестивалі «Червона рута-93» виступив вже якісно новий «Турбо-Техно-Саунд» — несподівано якнаймодніший техно-денс дозволив тріо завоювати друге місце, а керівників фестивалю примусив ввести до конкурсу нову категорію — виконавців танцювальної музики. Надалі ТТС перестав прогресувати — і якщо на концертах він ще вдало викручувався, то неякісні записи не дозволяли завоювати популярність у радіослухачів та диск-жокеїв. Ще одною перепоною на шляху до більшого успіху була невідповідність між денсовою музикою та публіцистичними текстами пісень.

Як не дивно перелом на краще стався в кінці 1995 року, після розділу гурту — Тарасу Пушику (24.07.??) залишилися назва, репертуар і Олена Дюлова (02.11.??). В лютому 1996 року ТТС нарешті завершує у львівській студії «Мелос» (режисер Богдан Стефура) запис дебютного альбому «Асфальтний синдром» (тиражований фірмою НАК) і вдало стартує — через місяць їхній старий хіт «Судний день» добирається до другого місця в хіт-параді «12 мінус 2» (вперше денсова пісенька піднімається так високо).

Екс-ТТСовець Роман Матіяш взявши в пару Ольгу Гречко і назвавшись «Фантом II», новий репертуар створює в коломийській студії «Кузня». Незважаючи на пізніший старт, в серпні «Фантом II» обходить в успіхах ТТС — кліп «Двоє» перемагає в відео-хіт-параді «Територія А», а згодом за підсумками року в «Параді Хіт-парадів» пісня входить в п'ятірку найпопулярніших в Україні. В жовтні Івано-франківська студія «Легіон» випустила касетку з їхнім альбомом «Зоряні війни», згодом його розтиражувала столична фірма НАК. В березні 1997-го на фірмі НАК побачив світ і черговий CD-альбом «Турбо-Техно-Саунда» — «Помандруй зі мною», а в червні і другий альбом «Фантому II» з назвою «Без контролю».
Log
Exact Audio Copy V0.99 prebeta 5 from 4. May 2009
EAC extraction logfile from 1. September 2010, 16:03
Турбо-Техно-Саунд / Помандруй Зі Мною
Used drive : Optiarc DVD RW AD-7170S Adapter: 2 ID: 2
Read mode : Secure
Utilize accurate stream : Yes
Defeat audio cache : Yes
Make use of C2 pointers : No
Read offset correction : 48
Overread into Lead-In and Lead-Out : No
Fill up missing offset samples with silence : Yes
Delete leading and trailing silent blocks : No
Null samples used in CRC calculations : Yes
Used interface : Installed external ASPI interface
Used output format : Internal WAV Routines
Sample format : 44.100 Hz; 16 Bit; Stereo
TOC of the extracted CD
Track | Start | Length | Start sector | End sector
---------------------------------------------------------
1 | 0:00.00 | 4:04.61 | 0 | 18360
2 | 4:04.61 | 3:57.74 | 18361 | 36209
3 | 8:02.60 | 4:15.35 | 36210 | 55369
4 | 12:18.20 | 5:05.18 | 55370 | 78262
5 | 17:23.38 | 5:53.41 | 78263 | 104778
6 | 23:17.04 | 4:36.54 | 104779 | 125532
7 | 27:53.58 | 4:51.27 | 125533 | 147384
8 | 32:45.10 | 4:22.45 | 147385 | 167079
9 | 37:07.55 | 3:20.35 | 167080 | 182114
Range status and errors
Selected range
Filename K:\torrents UPLOAD\UKR\Турбо-Техно-Саунд - 1997 - Помандруй Зі Мною\Турбо-Техно-Саунд - 1997 - Помандруй Зі Мною.wav
Peak level 98.8 %
Range quality 100.0 %
Test CRC 1AF09FA8
Copy CRC 1AF09FA8
Copy OK
No errors occurred
AccurateRip summary
Track 1 not present in database
Track 2 not present in database
Track 3 not present in database
Track 4 not present in database
Track 5 not present in database
Track 6 not present in database
Track 7 not present in database
Track 8 not present in database
Track 9 not present in database
None of the tracks are present in the AccurateRip database
End of status report
Якщо Ви справді бажаєте підтримати українське - після прослуховування, якщо музика вам сподобалась, придбайте ліцензійний диск. Підтримаймо вітчизняних виконавців!


Срібний реліз (на рейтинг впливає 50% завантаженого)
 Трекер:    Зареєстрований   

Завантажити / скачати українську музику



відео для новачків



 Зареєстрований:   2010-09-10 17:44
 Розмір:   370 MB 
 Оцінка музики:   10/10 (Голосів: 3)
   
RuzhakVolodymyr 
Новенький


З нами з: 13.05.10
Востаннє: 04.12.16
Повідомлень: 18

2012-11-09 15:58  
,,Надо скачать программу Monkey's Audio , затем установить её, запустить и выбрать опцию Decompress, перетянуть *.ape в окно проги, нажать Decompress, полученный файл *.wav можно записать как аудио CD с помощи NeroСDRWinBlindWriteEAC и прочих, поддерживающих формат WAVCUE. Для записи как аудио CD в Неро - надо положить WAVCUE в одну директорию, запустить Неро, FileBurn Image и выбрать CUE (!) файл. ,,
Це я скачав коли почав шукати що ж таке АРЕ . І у мене виникло питання. Якщо так все складно то навіщо викладати файли таких типів? Це не докір а просто питання. Бо тим хто захоче послухати композиції навряд чи вистарчить терпіння скачувати додаткові програми, встановлювати та щось там кудись перетягувати а потім ще й записувати на диск. Простіше було б релізеру зробити або WAV або мр3 і хай народ насолоджується. Особисто я хотів послухати і скачав цю музику але возитись з нею пів дня не маю наміру тому просто іду з роздачі, чого я не люблю робити, та видаляю реліз з свого компа.

fv007 
VIP


З нами з: 01.01.10
Востаннє: 06.12.16
Повідомлень: 449

2012-11-09 19:39  
RuzhakVolodymyr написано:
Особисто я хотів послухати і скачав цю музику але возитись з нею пів дня не маю наміру тому просто іду з роздачі, чого я не люблю робити, та видаляю реліз з свого компа.


RuzhakVolodymyr не все так складно Happy
інструкція, яку ви наводите призначена для запису аудіодисків з АРЕ, а для того щоб послухати APE достатньо інсталювати на комп'ютер Foobar2000, який і відтворює такий формат без проблем.

Ваш часовий пояс: GMT + 2 Години

Нова тема   Відповісти