Завантажити та скачати торренти українською


Hate Forest - Dead But Dreaming (збірка) (2009) [FLAC] | Raw Black Metal

Нові коментарі

Нова тема   Відповісти
Останній раз роздавалося Bexx666 (2015-07-08)
Автор Повідомлення
Lev 
VIP


З нами з: 14.10.09
Востаннє: 05.12.16
Повідомлень: 1819

2010-09-10 05:48  
Hate Forest - Dead But Dreaming (збірка) (2009) [FLAC] | Raw Black Metal



Стиль: Raw Black Metal
Країна, місто: Україна, Харків
Сайти:

Видавець: Primitive Reaction (Фінляндія)
Виконавці:
Роман Саєнко (Drudkh, Dark Ages, Blood of Kingu) - гітари, бас, ударні, вокал
Thurios (Drudkh, Astrofaes) - гітари, вокал

Екс-учасник: Khaoth - барабани (ex-Nokturnal Mortum, Khors, Tessaract, ex-Ltd Mutanter)

Музика, аранжування - Hate Forest
Пісні:
    01. Wscieklose Ktora Nadchodzi (Arkona cover) (5:49)
    02. Grief of the Universe (4:41)
    03. LCF (5:49)
    04. In Cold Empty Darkness (live) (3:11)
    05. To Those who Came before Us (live) (8:58)
    06. Desert of Ice (live) (5:52)
    07. Cenotaph (Bolt Thrower cover) (live) (4:25)
    log
    Exact Audio Copy V0.99 prebeta 4 from 23. January 2008

    EAC extraction logfile from 11. June 2010, 19:12

    Hate Forest / Dead But Dreaming

    Used drive : Optiarc DVD RW AD-7243S Adapter: 2 ID: 0

    Read mode : Secure
    Utilize accurate stream : Yes
    Defeat audio cache : Yes
    Make use of C2 pointers : No

    Read offset correction : 48
    Overread into Lead-In and Lead-Out : No
    Fill up missing offset samples with silence : Yes
    Delete leading and trailing silent blocks : No
    Null samples used in CRC calculations : Yes
    Used interface : Installed external ASPI interface

    Used output format : User Defined Encoder
    Selected bitrate : 768 kBit/s
    Quality : High
    Add ID3 tag : No
    Command line compressor : C:\Program Files\Exact Audio Copy\FLAC\FLAC.EXE
    Additional command line options : -6 -V -T "ARTIST=%a" -T "TITLE=%t" -T "ALBUM=%g" -T "DATE=%y" -T "TRACKNUMBER=%n" -T "GENRE=%m" -T "COMMENT=%e" %s -o %d

    TOC of the extracted CD

    Track | Start | Length | Start sector | End sector
    ---------------------------------------------------------
    1 | 0:00.00 | 5:49.42 | 0 | 26216
    2 | 5:49.42 | 4:41.37 | 26217 | 47328
    3 | 10:31.04 | 5:49.54 | 47329 | 73557
    4 | 16:20.58 | 3:11.17 | 73558 | 87899
    5 | 19:32.00 | 8:58.47 | 87900 | 128296
    6 | 28:30.47 | 5:52.22 | 128297 | 154718
    7 | 34:22.69 | 4:25.66 | 154719 | 174659

    Range status and errors

    Selected range

    Filename E:\Hate Forest - Dead But Dreaming.wav

    Peak level 97.3 %
    Range quality 99.9 %
    Test CRC 5ECDDC5D
    Copy CRC 5ECDDC5D
    Copy OK

    No errors occurred

    AccurateRip summary

    Track 1 not present in database
    Track 2 not present in database
    Track 3 not present in database
    Track 4 not present in database
    Track 5 not present in database
    Track 6 not present in database
    Track 7 not present in database

    None of the tracks are present in the AccurateRip database

    End of status report

Тривалість: 00:38:45
Мова: англійська
Аудіо-кодек: FLAC
Бітрейт: 479-1031 кб/с
Джерело: інший трекер
Додаткова інформація:
Hate Forest було засновано 1995 року в українському місті Харкові Романом Саєнко, Thurios'ом та Khaoth'ом.
Підвалинами мистецтва групи була арійська/слов'янська міфологія, ніцшеанська філософія та ідеологія елітизму.
Група була активною з 1995 по 2007 рік, 2009 року вийшов останній на сьогодні реліз Hate Forest, що складався з невиданого матеріалу.

Роздача містить високоякісні скани поліграфії.




Якщо Ви справді бажаєте підтримати українське - після прослуховування, якщо музика вам сподобалась, придбайте ліцензійний диск. Підтримаймо вітчизняних виконавців!


Срібний реліз (на рейтинг впливає 50% завантаженого)
 Трекер:    Зареєстрований   

Завантажити / скачати українську музику



відео для новачків



 Зареєстрований:   2010-09-10 05:48
 Розмір:   195 MB 
 Оцінка музики:   10/10 (Голосів: 5)
   
Tarasyk 
Відео Гуртом - фільмокрай
Відео Гуртом - фільмокрай


З нами з: 26.08.09
Востаннє: 28.11.16
Повідомлень: 5972

2010-09-10 13:47  
Lev, потім даси взаємні лінки на дискографію, і з дискографії сюди?
Lev 
VIP


З нами з: 14.10.09
Востаннє: 05.12.16
Повідомлень: 1819

2010-09-10 17:36  
Tarasyk

вже додав усюди Happy
більше Hate Forest'у не маю, тому якщо хтось має бажання доповнити колекцію релізів, хай активізується

але все найголовніше з творчості цієї банди і навіть трохи більше на трекері тепер вже є.

Ваш часовий пояс: GMT + 2 Години

Нова тема   Відповісти