Завантажити та скачати торренти українською


Вій - Рок легенди України (2005) [FLAC] | Dark / Ethno / Rock

Нові коментарі

Нова тема   Відповісти
Автор Повідомлення
iwan wan 
VIP


З нами з: 01.10.09
Востаннє: 08.12.16
Повідомлень: 1762

2010-09-09 15:00  
Вій - Рок легенди України (2005) [FLAC] | Dark / Ethno / Rock



Стиль: Dark Electro Rock
Країна, місто: Україна , Київ
Сайти: Офіційний сайт
Видавець: Атлантік
Виконавці:
Дмитро Добрий-Вечір – тексти, музика, головні співи, басова гітара, акустична гітара, комуз
Леся Рой – скрипка, флейта, клавішні інструменти, додатковий спів
Олександр Гросман – електрична гітара, акустична гітара, додатковий спів
Антон Топчій – електрична гітара, акустична гітара
Микола Родіонов – барабани
Анастасія Климова – звукорежисер
Пісні:
    01.Вогняне коло
    02.Змія
    03.Колискова для лялькових немовлят
    04.Різдвяна балада
    05.Лист додому
    06.Серед тіней
    07.Туман
    08.Птах за вікном
    09.Політ коршака
    10.Як летіли бугаї
    11.Очі відьми
    12.Хата скраю села

Тривалість: 00:56:10
Мова: українська
Аудіо-кодек: FLAC
Бітрейт: 859кб/с
Джерело: Інший трекер
Додаткова інформація:
Цей диск містить приблизно третину або чверть усіх виданих гуртом "Вій" пісень. Так, не зважаючи на доволі довгу історію, гурт записав не так вже й багато. Але пісні, що Ви їх тут почуєте, не є кращими з усіх. Тому що цей гурт, власне, не має пісень гірших. Чесно кажучи, у "Вія" всі пісні – кращі, тут немає "прохідних" номерів. Наприклад, практично всі тексти можна сміливо назвати довершеними, відточеними – бо в них зовсім немає зайвих слів. Можна їх назвати й універсальними. Бо влучні, точні слова – як гострі спиці, і аркуші смислів нанизуються на них майже безкінечно. Тому простір язичництва тут накладається на простір мегаполісів так, що вони цілком органічно співіснують, взаємодіють – та відкривають вікна у нові виміри. Приблизно те ж саме відбувається і з музикою гурту. Спочатку може здатися – просто рок. Але звідкись виринає східна перкусія. Потім – виникає мелодія, що нагадує про північних шаманів. Або – потужні, гарячі ритми, які на попіл спалюють душевну млявість. А потім – починається майже чистий арт. Але знов і знов все повертається до магії української, яку не опишеш – але відчуєш. Тому що все чесно. І зрозумієш тоді, що "Вій" є одним з непересічних явищ в українській рок-музиці. І захочеш дізнатися більше.
Умка
log

Exact Audio Copy V0.99 prebeta 5 from 4. May 2009
EAC extraction logfile from 3. July 2010, 0:03
Вій / Українська колекція
Used drive : HL-DT-STDVDRAM GH22NS40 Adapter: 2 ID: 1
Read mode : Secure
Utilize accurate stream : Yes
Defeat audio cache : Yes
Make use of C2 pointers : No
Read offset correction : 667
Overread into Lead-In and Lead-Out : No
Fill up missing offset samples with silence : Yes
Delete leading and trailing silent blocks : No
Null samples used in CRC calculations : Yes
Used interface : Native Win32 interface for Win NT & 2000
Used output format : User Defined Encoder
Selected bitrate : 128 kBit/s
Quality : High
Add ID3 tag : No
Command line compressor : C:\Program Files\FLAC\FLAC frontend.exe
Additional command line options : -8 -V %s
TOC of the extracted CD
Track | Start | Length | Start sector | End sector
---------------------------------------------------------
1 | 0:00.00 | 3:17.67 | 0 | 14841
2 | 3:17.67 | 4:04.68 | 14842 | 33209
3 | 7:22.60 | 5:48.32 | 33210 | 59341
4 | 13:11.17 | 3:37.73 | 59342 | 75689
5 | 16:49.15 | 3:02.67 | 75690 | 89406
6 | 19:52.07 | 4:07.05 | 89407 | 107936
7 | 23:59.12 | 5:56.36 | 107937 | 134672
8 | 29:55.48 | 4:47.49 | 134673 | 156246
9 | 34:43.22 | 7:42.65 | 156247 | 190961
10 | 42:26.12 | 3:25.12 | 190962 | 206348
11 | 45:51.24 | 5:10.27 | 206349 | 229625
12 | 51:01.51 | 5:08.37 | 229626 | 252762
Range status and errors
Selected range
Filename E:\Мои раздачи\Вій\Вій - Українська колекція.wav
Peak level 100.0 %
Range quality 100.0 %
Test CRC 31C51D97
Copy CRC 31C51D97
Copy OK
No errors occurred
End of status report
Якщо Ви справді бажаєте підтримати українське - після прослуховування, якщо музика вам сподобалась, придбайте ліцензійний диск. Підтримаймо вітчизняних виконавців!


Срібний реліз (на рейтинг впливає 50% завантаженого)
 Трекер:    Зареєстрований   

Завантажити / скачати українську музику



відео для новачків



 Зареєстрований:   2010-09-09 17:07
 Розмір:   346 MB 
 Оцінка музики:   10/10 (Голосів: 9)
   
Lev 
VIP


З нами з: 14.10.09
Востаннє: 05.12.16
Повідомлень: 1819

2010-09-09 16:24  
на їхьому сайті у розділі "дискографія" є скани буклету.
Skiff 
музика
музика


З нами з: 12.11.07
Востаннє: 08.12.16
Повідомлень: 3051

2010-09-09 16:45  
iwan wan написано:

Тривалість: 00:56:10

Мова: українська

Бітрейт: 859кб/с

Джерело: Інший трекер

Тут ще мав бути кодек

Додано через 2 хвилини 34 секунди:

Код:
[b]Аудіо-кодек:[/b] [color=green][i]FLAC[/i][/color]

iwan wan 
VIP


З нами з: 01.10.09
Востаннє: 08.12.16
Повідомлень: 1762

2010-09-09 17:08  
Додав аудіокодек , додав скани
Lev 
VIP


З нами з: 14.10.09
Востаннє: 05.12.16
Повідомлень: 1819

2010-09-10 05:01  
і склад у них зараз дещо інший - гітарист змінився, якщо вже вказувати склад станом на сьогодні Happy

реліз гарний, дивно як його тут досі не було, колись його ще на касеті слухав Happy

iwan wan 
VIP


З нами з: 01.10.09
Востаннє: 08.12.16
Повідомлень: 1762

2010-09-10 06:46  
Дійсно альбом класний , гітариста міняти не буду най так буде
Lev 
VIP


З нами з: 14.10.09
Востаннє: 05.12.16
Повідомлень: 1819

2010-09-10 10:03  
iwan wan написано:
гітариста міняти не буду най так буде


ну, якшо шо, він з ними ще з минулого року не грає Happy

weber 
Почесний гуртомівець


З нами з: 03.08.08
Востаннє: 07.12.16
Повідомлень: 7003

2010-09-11 12:04  
Lev написано:
ну, якшо шо, він з ними ще з минулого року не грає Happy

але ж на момент виходу цього грав.

sergeylittle 
Новенький


З нами з: 27.08.09
Востаннє: 29.11.16
Повідомлень: 13

2010-09-11 14:49  
weber
weber
З перерахованих Вами музикантів в записі цього диска взяли участь тільки Дмитро Добрій-Вечир і Микола Родіонов - Останні прийшли в групу набагато пойже

weber 
Почесний гуртомівець


З нами з: 03.08.08
Востаннє: 07.12.16
Повідомлень: 7003

2010-09-11 15:43  
sergeylittle, ну цього я не знав, якщо так то це ще більше міняє ситуацію, але це не муз. розділ, не знаю як тут пишуть в таких випадках.
Ваш часовий пояс: GMT + 2 Години

Нова тема   Відповісти