Завантажити та скачати торренти українською


Leadhaze - Black Water Path (2008) [FLAC] | Dark / Black Metal

Нові коментарі

Нова тема   Відповісти
Автор Повідомлення
Lev 
VIP


З нами з: 14.10.09
Востаннє: 28.11.16
Повідомлень: 1819

2010-09-09 12:10  
Leadhaze - Black Water Path (2008) [FLAC] | Dark / Black Metal



Стиль: Dark / Black Metal
Країна, місто: Україна, Львів
Сайти: Офіційний сайт
Видавець: Eastside Production (Польща)
Виконавці:
Viterzgir - вокал, гітари, бас, барабани, вся музика та дизайн альбому.
Пісні:
    01. Black Water Path (00:35)
    02. Smog of Their Souls (10:29)
    03. To Surmount the Fire (09:48)
    04. Lead Haze (09:28)
    05. Roots of My Clay (10:23)
    log
    Exact Audio Copy V0.99 prebeta 1 from 25. May 2007

    Отчёт EAC об извлечении, выполненном 1. июня 2009, 19:27

    Leadhaze / Black Water Path

    Дисковод: HL-DT-STDVD-RAM GH22NP20 Adapter: 0 ID: 0

    Режим чтения : Достоверность
    Использование точного потока : Да
    Отключение кэша аудио : Да
    Использование указателей C2 : Нет

    Коррекция смещения при чтении : 102
    Способность читать области Lead-in и Lead-out : Нет
    Заполнение пропущенных сэмплов тишиной : Да
    Удаление блоков с тишиной в начале и конце : Нет
    Интерфейс : Встроенный Win32-интерфейс для Win NT/2000

    Выходной формат : Внутренние WAV-операции
    Формат сэмплов : 44.100 Гц; 16 бит; стерео

    TOC извлечённого CD

    Трек | Старт | Длительность | Начальный сектор | Конечный сектор
    ---------------------------------------------------------------------
    1 | 0:00.00 | 0:37.14 | 0 | 2788
    2 | 0:37.14 | 10:31.15 | 2789 | 50128
    3 | 11:08.29 | 9:49.51 | 50129 | 94354
    4 | 20:58.05 | 9:29.45 | 94355 | 137074
    5 | 30:27.50 | 10:22.02 | 137075 | 183726

    Характеристики диапазона извлечения и сообщения об ошибках

    Выбранный диапазон

    Имя файла C:\Documents and Settings\Администратор\Рабочий стол\Аудио\Leadhaze - Black Water Path.wav

    Пиковый уровень 100.0 %
    Качество диапазона 100.0 %
    CRC копии F52CEA4F
    Копирование... OK

    Ошибок не произошло

    Конец отчёта

Тривалість: 00:40:50
Мова: українська (2-5), без слів (1)
Аудіо-кодек: FLAC
Бітрейт: 756-1026 кб/с, 16 bit / 44100 Hz
Джерело: інтернет
Додаткова інформація:

Цей альбом присвячено нашим білим братам, що загинули у криваві часи Другої Світової війни.
Війна має мільйон облич, але це завжди смерть.

Viterzgir


Один з численних проектів найплодовитішого українського блек-металіста Viterzgir'а, тематикою якого є відчуття людини, втягнутої в процес жорстокої війни...

Роздача містить високоякісні скани поліграфії релізу!

Якщо Ви справді бажаєте підтримати українське - після прослуховування, якщо музика вам сподобалась, придбайте ліцензійний диск. Підтримаймо вітчизняних виконавців!


Срібний реліз (на рейтинг впливає 50% завантаженого)
 Трекер:    Зареєстрований   

Завантажити / скачати українську музику



відео для новачків



 Зареєстрований:   2010-09-09 12:10
 Розмір:   305 MB 
 Оцінка музики:   9.7/10 (Голосів: 6)
   
ssTAss 
Модератор музики


З нами з: 05.07.08
Востаннє: 05.12.16
Повідомлень: 10938

2010-09-09 13:31  
не розумію, для чого додавати "не свій" лог?
або релізьте "як було - flac+cue"

Lev 
VIP


З нами з: 14.10.09
Востаннє: 28.11.16
Повідомлень: 1819

2010-09-09 13:59  
ssTAss

тому шо конвертація з АРЕ у FLAC принципово нічого не міняє для лоґу.

ssTAss 
Модератор музики


З нами з: 05.07.08
Востаннє: 05.12.16
Повідомлень: 10938

2010-09-09 14:13  
Lev написано:
тому шо конвертація з АРЕ у FLAC принципово нічого не міняє для лоґу.
офтоп
міняє... Ви ж не просто переконвертували апе у фляк, а порізали
тому лог до того вже ніц немає

Lev 
VIP


З нами з: 14.10.09
Востаннє: 28.11.16
Повідомлень: 1819

2010-09-09 14:25  
ssTAss написано:

міняє... Ви ж не просто переконвертували апе у фляк, а порізали
тому лог до того вже ніц немає


дивно, не знав.
виходить, справді забрати його з опису?

Додано через 1 хвилину 18 секунд:

там потрековий ріп був, просто в АРЕ, який не читається моєю версію фубару і взагалі я не певен у його безкоштовності, на відміну від FLAC.

jinotot 
Почесний оцифрувальник літератури


З нами з: 28.01.09
Востаннє: 04.12.16
Повідомлень: 3235

2010-09-09 23:40  
Lev, а лінк на роздачу в МР3 на Толоці? Wink (2)
Lev 
VIP


З нами з: 14.10.09
Востаннє: 28.11.16
Повідомлень: 1819

2010-09-10 04:37  
jinotot

забув )

sko4 
Поважний учасник


З нами з: 23.06.08
Востаннє: 30.11.16
Повідомлень: 181

2011-10-31 23:36  
Цитата:
АРЕ, який не читається моєю версію фубару


Існує компонент Monkey's Audio Decoder http://www.foobar2000.org/components/view/foo_input_monkey який вирішує цей трабл. Мабуть немає аудіозадачі, яку неможливо вирішити для фубару Happy

оксана1909 
Свій


З нами з: 07.02.10
Востаннє: 12.06.15
Повідомлень: 122

2012-01-18 17:16  
хе хе
Вітерзгір рулить! Але не розумію навіщо писати назви пісень англійською, якщо текст український

Oleksa9 
Поважний учасник


З нами з: 17.05.12
Востаннє: 04.12.16
Повідомлень: 225

2012-06-01 21:42  
Вже двоє у черзі на завантаження - роздасте?
Lev 
VIP


З нами з: 14.10.09
Востаннє: 28.11.16
Повідомлень: 1819

2012-06-02 02:24  
Oleksa9

Став на роздачу, дякую за нагадування.

Ваш часовий пояс: GMT + 2 Години

Нова тема   Відповісти