Завантажити та скачати торренти українською


ЯЯЯ - Рок легенди України (2003) [FLAC] | Rock

Нові коментарі

Нова тема   Відповісти
Останній раз роздавалося bj123 (2012-01-07)
Автор Повідомлення
iwan wan 
VIP


З нами з: 01.10.09
Востаннє: 08.12.16
Повідомлень: 1762

2010-09-06 14:16  
ЯЯЯ - Рок легенди України (2003) [FLAC] | Rock



Стиль: Rock

Видавець: Атлантік
Виконавці:
Юрій Здоренко - вокал, гітара
Євген Зайцев - клавішні
Ігор Лук’янець - соло-гітара
Сергій Сахно - барабан
Пісні:
    01. Intro
    02. Джига
    03. Бешкетниця
    04. Коханий блюз
    05. Агнеса
    06. Дождь
    07. Не кажи прощай
    08. Тутешній блюз
    09. Ліда
    10. Рок-н-рол
    11. I'm going crazy
    12. Блакитний джаз
    13. Пора братці
    14. Звуки, звуки
    15. Сестра
    16. Touch me
    17. Серед зірок
    18. ЯЯЯ

Тривалість: 01:04:18
Мова: українська (1-5,7-18), російська (6)
Аудіо-кодек: FLAC
Бітрейт: 909 кб/с
Джерело: Інший трекер
Додаткова інформація:
Про всяк випадок нагадаю Вам як проект "ЯЯЯ" з’явився на світ. Двоє з "ВВ", а саме Скрипка та Буба, чкурнули до Франції. З того, що залишилося на батьківщині від "Воплів Відоплясова", і народилися "ЯЯЯ". Ніщо не випадкове, і це теж було на добре. Адже ми отримали ще один дещо божевільний, але веселий та приємний гурт. Вони нагадують сучасну українську кухню - звідусіль потроху плюс дещо сала та здатності над ним же й сміятися, і неодмінно додамо ще присмак київських кав’ярень. Так, це фарс та бурлеск, парадна хода трагікомічних клоунів, але вони недвозначно довели, що є музиками за будь-яких обставин. Тому скажу, що повернення Скрипки з Бубою та відродження "ВВ" - це нам на радість, але такі явища, як "ЯЯЯ", треба пам’ятати та берегти.

"Рок Легенди України" - це серія збірок кращих творів відомих українських рок-гуртів. Саме ці музиканти творили історію сучасної української музики. Як і личить колекційній серії, всі диски поєднані стильним дизайном і стануть чудовим подарунком і прикрасою в колекції меломана.

УМКА
log
xact Audio Copy V0.99 prebeta 3 from 28. July 2007

EAC extraction logfile from 14. November 2007, 18:19

ЯЯЯ / Українська колекція

Used drive : PIONEER DVD-RW DVR-212 Adapter: 8 ID: 0

Read mode : Secure
Utilize accurate stream : Yes
Defeat audio cache : Yes
Make use of C2 pointers : Yes

Combined read/write offset correction : 48
Overread into Lead-In and Lead-Out : No
Fill up missing offset samples with silence : Yes
Delete leading and trailing silent blocks : No
Null samples used in CRC calculations : Yes
Used interface : Installed external ASPI interface

Used output format : Monkey's Audio Lossless Encoder v3.99 DLL
Sample format : High Lossless Compression

TOC of the extracted CD

Track | Start | Length | Start sector | End sector
---------------------------------------------------------
1 | 0:00.00 | 0:57.65 | 0 | 4339
2 | 0:57.65 | 2:59.48 | 4340 | 17812
3 | 3:57.38 | 3:00.48 | 17813 | 31360
4 | 6:58.11 | 3:27.03 | 31361 | 46888
5 | 10:25.14 | 2:52.57 | 46889 | 59845
6 | 13:17.71 | 3:19.14 | 59846 | 74784
7 | 16:37.10 | 4:15.46 | 74785 | 93955
8 | 20:52.56 | 3:42.20 | 93956 | 110625
9 | 24:35.01 | 2:40.10 | 110626 | 122635
10 | 27:15.11 | 3:38.21 | 122636 | 139006
11 | 30:53.32 | 3:07.40 | 139007 | 153071
12 | 34:00.72 | 4:14.09 | 153072 | 172130
13 | 38:15.06 | 2:47.44 | 172131 | 184699
14 | 41:02.50 | 2:24.13 | 184700 | 195512
15 | 43:26.63 | 3:59.30 | 195513 | 213467
16 | 47:26.18 | 4:54.09 | 213468 | 235526
17 | 52:20.27 | 4:21.52 | 235527 | 255153
18 | 56:42.04 | 6:40.35 | 255154 | 285188

Range status and errors

Selected range

FilenameE:2003 ЯЯЯ. Українська колекція\ЯЯЯ - Українська колекція.wav

Peak level 100.0 %
Range quality 100.0 %
Copy CRC7F465EF9
Copy OK

No errors occurred

End of status report
Також на Толоці :
цей альбом в MP3

Якщо Ви справді бажаєте підтримати українське - після прослуховування, якщо музика вам сподобалась, придбайте ліцензійний диск. Підтримаймо вітчизняних виконавців!


Срібний реліз (на рейтинг впливає 50% завантаженого)
 Трекер:    Зареєстрований   

Завантажити / скачати українську музику



відео для новачків



 Зареєстрований:   2010-09-06 14:16
 Розмір:   506 MB 
 Оцінка музики:   10/10 (Голосів: 6)
   
ssTAss 
Модератор музики


З нами з: 05.07.08
Востаннє: 08.12.16
Повідомлень: 10948

2011-02-10 18:00  
ох, тєжко йде завантаження.. мо хтось стане на роздачу, га?
shtoz 
Поважний учасник


З нами з: 12.07.10
Востаннє: 21.11.16
Повідомлень: 153

2011-02-10 20:51  
зара має стати краще.
ніхто не хоче підтримувати роздачі а в мене хард не резиновий нажаль і на віддачу всього 2Мбіт(

iwan wan 
VIP


З нами з: 01.10.09
Востаннє: 08.12.16
Повідомлень: 1762

2011-02-10 22:09  
Нажаль я вже видалив з компа цей альбом
=До речі]В мене на віддачу усього 512 кілобіт/с

ssTAss 
Модератор музики


З нами з: 05.07.08
Востаннє: 08.12.16
Повідомлень: 10948

2011-02-10 22:11  
shtoz написано:
зара має стати краще.

дякую Вам
правда, повільно шось, але як вже є...
shtoz написано:
ніхто не хоче підтримувати роздачі

на жаль, то дійсно проблєма.... а як то вирішити?
в нас і так дуже лояльний трекер - і чітерів не дуже караєм, і рейтинг обнулити можна, і ніхто за айпішками не слідкує... ееех, не знаю, але там де жорсткіше з тим, там і сідери чомусь завше є
а де трекер закритий (тільки по запрошеннях чи якихсь тестах) - всі рвуться туди... як мотивувати, га?

shtoz 
Поважний учасник


З нами з: 12.07.10
Востаннє: 21.11.16
Повідомлень: 153

2011-02-10 22:30  
Цитата:
дякую Вам
правда, повільно шось, але як вже є...
було нормально як я позакривав інші выддачі, але зараз дивлюсь знов до вас впало до нуля майже, може укртелеком вимахується
ОФФ
Цитата:
на жаль, то дійсно проблєма.... а як то вирішити?
ніяк, то особисто справа кожного, я наприклад немаю часу релізити (допоки знов у відпустку не піду)))) але качаю майже все в цьому розділі і роздаю, думаю купити ще хард щоб більше роздач підтримувати боякшо не ми то хто...

Цитата:
а де трекер закритий (тільки по запрошеннях чи якихсь тестах) - всі рвуться туди... як мотивувати, га?
не зауважував такого
fanDYNAMO 
Частий відвідувач


З нами з: 30.12.12
Востаннє: 05.12.16
Повідомлень: 38

2013-03-09 11:31  
можна стати на роздачу?
Ваш часовий пояс: GMT + 2 Години

Нова тема   Відповісти