Завантажити та скачати торренти українською


Віка Врадій - Рок легенди України (2003) [FLAC] | Rock

Нові коментарі

Нова тема   Відповісти
Автор Повідомлення
Anonymous 







2010-09-05 09:12  
Віка Врадій - Рок легенди України (2003) [FLAC] | Rock



Стиль: Rock
Країна, місто: Україна, Львів

Видавець: Атлантік
Виконавці:
Віка (Віка Врадій) - лідер вокал
В. Бебешко - клавішні
В. Ярун - соло гітара
О. Левицький - саксофон
Л. Борисов - гітара
Пісні:
    1. Ганьба
    2. То моє море
    3. Мамо, але я дурна
    4. Тинди-ринди
    5. Мій ровер
    6. Намалюй мене ніч
    7. Україна рок-н-рол
    8. Шахтарськи буги
    9. Не треба, Стьопа
    10. Хот-дог
    11. Мамо, я фраєра люблю
    12. Тіко ти
    13. Хочу пива
    14. В темну ніч весняну
    15. Сороміцькі коломийки
    16. Гаю-гай
    17. Зима в кедах
    18. Гопа-шейк

Тривалість: 1:14:30
Мова: українська
Аудіо-кодек: FLAC
Бітрейт: 921 кб/с
Джерело: Інший трекер
Додаткова інформація:
про виконавця
Віка вас шокує? Дратує нахабними танцями-шманцями? Її неймовірно екстравагантні лахи – ляпас вашому естетичному смакові? Ваш слух обурює неймовірний суржик? Дуже добре. Вона досягла мети. Втім, епатаж для Віки – це, так би мовити, програма-мінімум. Необхідний для її сценічного існування набір архітипових ознак такого собі міського покидька невизначеного роду. Вона вдосконалила “петеушну” естетику ленінградця Віктора Цоя. Вона драматизувала образ “підвішеного” між селом і містом “бурсака” (“бурса” – так величають учні ПТУ свій навчальний заклад).

Український панк започаткувала група ВВ. Львівські Брати Гадюкіни підхопили “це дєло” і розвинули – звісно на рідному грунті. З’явилась ціла низка гротескних, генетично прив’язаних до Лемківщини пісень. Однак, якби Сергій Кузьмінський не грав на сільскіх весіллях півдесятка років, не народився б незбагненний “Мертвий півень”... І не почули б ми “Ганьбу” й “Шахтарське бугі” – пісень, що їх спеціально для Віки написав Сергій. А бас-гітарист і звукорежисер Володимир Бебешко “одягнув” ці речі в сучасні електроні шати і запустив у Світ Божий.

- Я розуміла що перед тим, як вийти на львівську сцену, потрібно знайти новий образ, пластику, відповідну музику. У своїх пошуках мала відповідні орієнтири – це творчість таких світових зірок, як Стінг, Ніна Хаген, Габрієл...

Вирішальний момент – знайомство з Гадюкіними. Виник спільний проект. Однак я відчула, що тягну ковдру на себе. Ні, ми не сварилися. Навіть не розлучалися. У нас спільні концерти, але різні прграми...

На фестивалі “Червона Рута” вони так і виступили: спочатку Віка, а потім БРАТИ. Віка, як відомо, отримала “Гран-Прі”. Два лідери – дві різні моделі сценічної пластики. Будь-яка музична група поряд з шалено-експресивною співачкою миттєво перетворюється в акомпануючий склад на другій лінії. Цікаво, що в обраному тоді новому амплуа, Віка працювала приблизно півроку, а її нові речі вже суттєво відрізнялися від “червонорутівських” пісень-бойовиків.

В українській естраді ще ніхто так вільно і впевнено не обходився з музичною формою, ніхто ще не досяг такого влучного синтезу.

Влітку 1993-го Віка виїхала з концертом до Нью-Йорку. Цього разу з нею були її син і улюблений кіт. Ставши не зовсім законним емігрантом, Віка вирішила превірити себе на міцність. Чи видужає? А було й справді не солодко. Лише через деякий час вона створила власну групу ЕХІТ, яка грає блюзові стандарти й український панк...
log
Exact Audio Copy V0.99 prebeta 3 from 28. July 2007

EAC extraction logfile from 14. November 2007, 18:19

Віка Врадій / Рок легенди України

Used drive : Optiarc DVD RWHL-DT-STDVDRAM GSA-4165B Adapter: 0 ID: 2

Read mode : Secure
Utilize accurate stream : Yes
Defeat audio cache : Yes
Make use of C2 pointers : Yes

Combined read/write offset correction : 667
Overread into Lead-In and Lead-Out : No
Fill up missing offset samples with silence : Yes
Delete leading and trailing silent blocks : No
Null samples used in CRC calculations : Yes
Used interface : Installed external ASPI interface

Used output format : Monkey's Audio Lossless Encoder v3.99 DLL
Sample format : High Lossless Compression

TOC of the extracted CD

Track | Start | Length | Start sector | End sector
---------------------------------------------------------
1 | 0:00.00 | 5:46.03 | 0 | 25952
2 | 5:46.03 | 5:22.06 | 25953 | 50108
3 | 11:08.09 | 3:38.43 | 50109 | 66501
4 | 14:46.52 | 5:17.26 | 66502 | 90302
5 | 20:04.03 | 3:08.10 | 90303 | 104412
6 | 23:12.13 | 4:17.48 | 104413 | 123735
7 | 27:29.61 | 3:52.03 | 123736 | 141138
8 | 31:21.64 | 3:00.44 | 141139 | 154682
9 | 34:22.33 | 3:37.74 | 154683 | 171031
10 | 38:00.32 | 4:11.32 | 171032 | 189888
11 | 42:11.64 | 4:05.15 | 189889 | 208278
12 | 46:17.04 | 3:57.26 | 208279 | 226079
13 | 50:14.30 | 4:14.63 | 226080 | 245192
14 | 54:29.18 | 5:36.38 | 245193 | 270430
15 | 60:05.56 | 7:00.07 | 270431 | 301937
16 | 67:05.63 | 4:57.09 | 301938 | 324221
17 | 72:02.72 | 0:51.07 | 324222 | 328053
18 | 72:54.04 | 1:41.53 | 328054 | 335681
Range status and errors

Selected range

FilenameE:\Downloads\uTorrent\Vika\Віка Врадій - Рок легенди України.wav

Peak level 88.0 %
Range quality 100.0 %
Copy CRC 890AA4BB
Copy OK

No errors occurred

End of status report
Також на Толоці :
цей альбом в MP3


Якщо Ви справді бажаєте підтримати українське - після прослуховування, якщо музика вам сподобалась, придбайте ліцензійний диск. Підтримаймо вітчизняних виконавців!


Срібний реліз (на рейтинг впливає 50% завантаженого)
 Трекер:    Зареєстрований   

Завантажити / скачати українську музику



відео для новачків



 Зареєстрований:   2012-08-08 12:37
 Розмір:   492 MB 
 Оцінка музики:   10/10 (Голосів: 8)
   
Fritz 
Частий відвідувач


З нами з: 27.04.09
Востаннє: 31.05.15
Повідомлень: 32

2012-07-25 19:18  
Цитата:
Останній раз роздавалося mangust011 (2011-08-03)

Цей торрент ще живий? Роздайте, будь ласка.

ssTAss 
Модератор музики


З нами з: 05.07.08
Востаннє: 03.12.16
Повідомлень: 10930

2012-07-25 22:26  
стаю на роздачу... забирайте

Додано через 9 хвилин 37 секунд:

файл куе не проходить перевірки (як і лог)
не знаю чому.. видно я щось змінював
тому куе пишу тут
cue

REM GENRE Rock
REM DATE 2003
REM DISCID 07117B12
REM COMMENT ExactAudioCopy v0.99pb3
PERFORMER "Віка Врадій"
TITLE "Рок легенди України"
FILE "Віка Врадій - Рок легенди України.flac" WAVE
TRACK 01 AUDIO
TITLE "Ганьба"
PERFORMER "Віка Врадій"
INDEX 01 00:00:00
TRACK 02 AUDIO
TITLE "То моє море"
PERFORMER "Віка Врадій"
INDEX 01 05:46:03
TRACK 03 AUDIO
TITLE "Мамо, але я дурна"
PERFORMER "Віка Врадій"
INDEX 01 11:08:09
TRACK 04 AUDIO
TITLE "Тинди-ринди"
PERFORMER "Віка Врадій"
INDEX 01 14:46:52
TRACK 05 AUDIO
TITLE "Мій ровер"
PERFORMER "Віка Врадій"
INDEX 01 20:04:03
TRACK 06 AUDIO
TITLE "Намалюй мені ніч"
PERFORMER "Віка Врадій"
INDEX 01 23:12:13
TRACK 07 AUDIO
TITLE "Україна рок-н-рол"
PERFORMER "Віка Врадій"
INDEX 01 27:29:61
TRACK 08 AUDIO
TITLE "Шахтарські буги"
PERFORMER "Віка Врадій"
INDEX 01 31:21:64
TRACK 09 AUDIO
TITLE "Не треба, Стьопа"
PERFORMER "Віка Врадій"
INDEX 01 34:22:33
TRACK 10 AUDIO
TITLE "Хот-дог"
PERFORMER "Віка Врадій"
INDEX 01 38:00:32
TRACK 11 AUDIO
TITLE "Мамо, я фраєра люблю"
PERFORMER "Віка Врадій"
INDEX 01 42:11:64
TRACK 12 AUDIO
TITLE "Тіко ти"
PERFORMER "Віка Врадій"
INDEX 01 46:17:04
TRACK 13 AUDIO
TITLE "Хочу пива"
PERFORMER "Віка Врадій"
INDEX 01 50:14:30
TRACK 14 AUDIO
TITLE "В темну ніч весняну"
PERFORMER "Віка Врадій"
INDEX 01 54:29:18
TRACK 15 AUDIO
TITLE "Сороміцькі коломійки"
PERFORMER "Віка Врадій"
INDEX 01 60:05:56
TRACK 16 AUDIO
TITLE "Гаю-гай"
PERFORMER "Віка Врадій"
INDEX 01 67:05:63
TRACK 17 AUDIO
TITLE "Зима в кедах"
PERFORMER "Віка Врадій"
INDEX 01 72:02:72
TRACK 18 AUDIO
TITLE "Гопа-шейк"
PERFORMER "Віка Врадій"
INDEX 01 72:54:04

Anonymous 







2012-07-26 12:57  
Сьогодні ввечері повернусь на роздачу
Anonymous 







2012-08-08 12:39  
Перезалив торент файл , так як старий видавав помилку
Ваш часовий пояс: GMT + 2 Години

Нова тема   Відповісти