Завантажити та скачати торренти українською


Hexenmeister - ... and Life in Insomnia (2010) [FLAC] | Melancholic Post-Black Metal / Shoegaze

Нові коментарі

Нова тема   Відповісти
Останній раз роздавалося alenas2001 (2015-06-06)
Автор Повідомлення
Lev 
VIP


З нами з: 14.10.09
Востаннє: 05.12.16
Повідомлень: 1819

2010-09-02 02:38  
Hexenmeister - ... and Life in Insomnia (2010) [FLAC] | Melancholic Post-Black Metal / Shoegaze



Стиль: Melancholic Post-Black Metal / Shoegaze
Країна, місто: Україна
Сайти:

Видавець: ARX Productions
Виконавці:
Bran - вокал та всі інструменти
Пісні:
    01. Melancholia Attonita (08:13)
    02. Silence is Broken (06:08)
    03. A Life in Insomnia (05:12)
    04. Hermitage (03:37)
    05. In Moments of Tranquillity (07:17)
    06. Where You will Stop, and I'll Keep Falling (08:30)
    07. Autumn Leaves (Bonus Track - Ved Buens Ende Cover) (05:10)
log
Exact Audio Copy V0.99 prebeta 5 from 4. May 2009

EAC extraction logfile from 18. July 2010, 17:12

Hexenmeister / ...And Life In Insomnia

Used drive : Optiarc DVD RW AD-5200A Adapter: 2 ID: 0

Read mode : Secure
Utilize accurate stream : Yes
Defeat audio cache : Yes
Make use of C2 pointers : No

Read offset correction : 48
Overread into Lead-In and Lead-Out : No
Fill up missing offset samples with silence : Yes
Delete leading and trailing silent blocks : No
Null samples used in CRC calculations : Yes
Used interface : Native Win32 interface for Win NT & 2000

Used output format : Monkey's Audio Lossless Encoder
Selected bitrate : Fast Lossless Compression
Quality : High
Add ID3 tag : No
Command line compressor : C:\Program Files (x86)\Monkey's Audio\MAC.exe

TOC of the extracted CD

Track | Start | Length | Start sector | End sector
---------------------------------------------------------
1 | 0:00.00 | 8:13.55 | 0 | 37029
2 | 8:13.55 | 6:08.41 | 37030 | 64670
3 | 14:22.21 | 5:12.34 | 64671 | 88104
4 | 19:34.55 | 3:37.38 | 88105 | 104417
5 | 23:12.18 | 7:17.53 | 104418 | 137245
6 | 30:29.71 | 8:30.32 | 137246 | 175527
7 | 39:00.28 | 5:10.60 | 175528 | 198837

Range status and errors

Selected range

Filename D:\dedho\Hexenmeister - ...And Life In Insomnia\Hexenmeister - ...And Life In Insomnia.wav

Peak level 100.0 %
Range quality 99.9 %
Test CRC 3DF6A1E4
Copy CRC 3DF6A1E4
Copy OK

No errors occurred

AccurateRip summary

Track 1 not present in database
Track 2 not present in database
Track 3 not present in database
Track 4 not present in database
Track 5 not present in database
Track 6 not present in database
Track 7 not present in database

None of the tracks are present in the AccurateRip database

End of status report
Тривалість: 00:44:11
Мова: англійська
Аудіо-кодек: FLAC
Бітрейт: 935-1048 кб/с
Джерело: інший торент-трекер
Додаткова інформація:
Дебютний повноформатник оригінального та перспективного українського проекту.

У роздачі є повний комплект сканів.
Диск однозначно варто придбати!





Якщо Ви справді бажаєте підтримати українське - після прослуховування, якщо музика вам сподобалась, придбайте ліцензійний диск.
Підтримаймо вітчизняних виконавців!


Срібний реліз (на рейтинг впливає 50% завантаженого)
 Трекер:    Зареєстрований   

Завантажити / скачати українську музику



відео для новачків



 Зареєстрований:   2010-09-02 02:38
 Розмір:   341 MB 
 Оцінка музики:   10/10 (Голосів: 6)
   
Ваш часовий пояс: GMT + 2 Години

Нова тема   Відповісти