Завантажити та скачати торренти українською


Hate Forest - Дискографія (5 альбомів + 1 збірка) (2001-2005) [FLAC] | Raw Black Metal

Нові коментарі

Нова тема   Відповісти
Автор Повідомлення
Lev 
VIP


З нами з: 14.10.09
Востаннє: 05.12.16
Повідомлень: 1819

2010-09-01 03:18  
Hate Forest - Дискографія (5 альбомів + 1 збірка) (2001-2005) [FLAC] | Raw Black Metal



Стиль: Raw Black Metal
Країна, місто: Україна, Харків
Сайти:

Видавець: Supernal Music (Велика Британія)
Виконавці:
Роман Саєнко (Drudkh, Dark Ages, Blood of Kingu) - гітари, бас, ударні, вокал
Thurios (Drudkh, Astrofaes) - гітари, вокал

Екс-учасник: Khaoth - барабани (ex-Nokturnal Mortum, Khors, Tessaract, ex-Ltd Mutanter)

Музика, аранжування - Hate Forest

Пісні:
    The Most Ancient Ones (2001)




    01. To The Thickets And Swamps (04:05)
    02. The Most Ancient Ones (04:53)
    03. Inmost Winter (06:00)
    04. Black Forest (05:07)
    05. The Elders (05:27)
    06. Darkness (06:27)
    07. The Night Of Winter Solstice (06:54)
    08. The Curse (06:22)

    Тривалість: 00:45:14
    Бітрейт: 901-979 кб/c
    log
    EAC extraction logfile from 9. August 2007, 16:41 for CD
    Hate Forest / The Most Ancient Ones

    Used drive : SONY DVD RW DW-D56A Adapter: 0 ID: 1
    Read mode : Secure with NO C2, accurate stream, disable cache
    Read offset correction : 12
    Overread into Lead-In and Lead-Out : No

    Used output format : C:\Program Files\Exact Audio Copy\FLAC.EXE (User Defined Encoder)
    32 kBit/s
    Additional command line options : -6 -V -T "artist=%a" -T "title=%t" -T "album=%g" -T "date=%y" -T "tracknumber=%n" -T "genre=%m" -T "comment=EAC 0.9beta4 / FLAC 1.1.0 q6" %s

    Other options :
    Fill up missing offset samples with silence : Yes
    Delete leading and trailing silent blocks : No
    Installed external ASPI interface

    Range status and errors
    Selected range
    Filename C:\Documents and Settings\Erep\Bureau\Nouveau dossier\Hate Forest - The Most Ancient Ones.wav.wav.wav

    Peak level 99.8 %
    Range quality 99.9 %
    CRC 0DB742C5
    Copy OK

    No errors occured

    End of status report
    Purity (2003)




    01. Domination (05:55)
    02. Elder Race (05:23)
    03. The Gates (11:03)
    04. Megaliths (02:33)
    05. The Immortal Ones (11:24)
    06. Desert Of Ice (06:06)
    07. Cromlech (02:10)

    Тривалість: 00:44:33
    Бітрейт: 819-1025 кб/с
    log
    Exact Audio Copy V0.99 prebeta 4 from 23. January 2008

    EAC extraction logfile from 3. October 2008, 0:03

    Hate Forest / Purity

    Used drive : _NEC DVD_RW ND-3540A Adapter: 1 ID: 0

    Read mode : Secure
    Utilize accurate stream : Yes
    Defeat audio cache : Yes
    Make use of C2 pointers : No

    Read offset correction : 48
    Overread into Lead-In and Lead-Out : No
    Fill up missing offset samples with silence : Yes
    Delete leading and trailing silent blocks : No
    Null samples used in CRC calculations : Yes
    Used interface : Installed external ASPI interface

    Used output format : User Defined Encoder
    Selected bitrate : 32 kBit/s
    Quality : High
    Add ID3 tag : No
    Command line compressor : C:\Program Files\Exact Audio Copy\flac.exe
    Additional command line options : -6 -V %s

    TOC of the extracted CD

    Track | Start | Length | Start sector | End sector
    ---------------------------------------------------------
    1 | 0:00.00 | 5:54.71 | 0 | 26620
    2 | 5:54.71 | 5:23.11 | 26621 | 50856
    3 | 11:18.07 | 11:03.17 | 50857 | 100598
    4 | 22:21.24 | 2:33.04 | 100599 | 112077
    5 | 24:54.28 | 11:24.56 | 112078 | 163433
    6 | 36:19.09 | 6:06.17 | 163434 | 190900
    7 | 42:25.26 | 2:10.51 | 190901 | 200701

    Range status and errors

    Selected range

    Filename F:\Lossless\Hate Forest - Purity (2003) [FLAC]\Hate Forest - Purity (2003).wav

    Peak level 100.0 %
    Range quality 100.0 %
    Copy CRC E4CD4F83
    Copy OK

    No errors occurred

    AccurateRip summary

    Track 1 accurately ripped (confidence 2) [68B207FA]
    Track 2 accurately ripped (confidence 2) [6EB4D099]
    Track 3 accurately ripped (confidence 2) [761C88DD]
    Track 4 accurately ripped (confidence 2) [CC944165]
    Track 5 accurately ripped (confidence 2) [6E193A28]
    Track 6 accurately ripped (confidence 2) [E2A345C5]
    Track 7 not present in database

    6 track(s) accurately ripped
    1 track(s) not present in the AccurateRip database

    Some tracks could not be verified as accurate

    End of status report
    Battlefields (2003, перевидання 2004)




    01. У Недiлю... (01:54)
    02. With Fire And Iron (09:14)
    03. Проведу Я Русалочку... (01:02)
    04. Our Fading Horizons (10:34)
    05. Колискова (01:57)
    06. Glare Over Slavonic Lands (10:20)
    07. Поминальна (02:46)

    Мова: 01, 03, 05, 07 - українська (українські традиційні пісні взято зі збірок "Зелений шум Полісся" та "Берви")
    Тривалість: 00:37:54
    Бітрейт: 686-872 кб/c
    log
    Exact Audio Copy V0.99 prebeta 4 from 23. January 2008

    Отчёт EAC об извлечении, выполненном 4. мая 2009, 11:36

    Hate Forest / Battlefields (2004 Reissue)

    Дисковод: HL-DT-STDVDRAM GSA-H10N Adapter: 0 ID: 0

    Режим чтения : Достоверность
    Использование точного потока : Да
    Отключение кэша аудио : Да
    Использование указателей C2 : Нет

    Коррекция смещения при чтении : 667
    Способность читать области Lead-in и Lead-out : Нет
    Заполнение пропущенных сэмплов тишиной : Да
    Удаление блоков с тишиной в начале и конце : Нет
    При вычислениях CRC использовались нулевые сэмплы : Да
    Интерфейс : Встроенный Win32-интерфейс для Win NT/2000

    Выходной формат : Внутренние WAV-операции
    Формат сэмплов : 44.100 Гц; 16 бит; стерео

    TOC извлечённого CD

    Трек | Старт | Длительность | Начальный сектор | Конечный сектор
    ---------------------------------------------------------------------
    1 | 0:00.00 | 1:54.26 | 0 | 8575
    2 | 1:54.26 | 9:14.17 | 8576 | 50142
    3 | 11:08.43 | 1:02.41 | 50143 | 54833
    4 | 12:11.09 | 10:34.09 | 54834 | 102392
    5 | 22:45.18 | 1:57.03 | 102393 | 111170
    6 | 24:42.21 | 10:20.32 | 111171 | 157702
    7 | 35:02.53 | 2:46.00 | 157703 | 170152

    Характеристики диапазона извлечения и сообщения об ошибках

    Выбранный диапазон

    Имя файла D:\01-TEMP-10\MP3\Hate Forest 2003 Battlefields (2004 Reissue).wav

    Пиковый уровень 95.5 %
    Качество диапазона 100.0 %
    CRC копии 96969D58
    Копирование... OK

    Ошибок не произошло

    AccurateRip: сводка

    Трек 1 точное извлечение (доверие 2) [0B675BC7]
    Трек 2 точное извлечение (доверие 2) [9A734A6A]
    Трек 3 точное извлечение (доверие 2) [02326101]
    Трек 4 точное извлечение (доверие 2) [9A2E5153]
    Трек 5 точное извлечение (доверие 2) [693FB4D7]
    Трек 6 точное извлечение (доверие 2) [0778E6C7]
    Трек 7 точное извлечение (доверие 2) [6AF6196A]

    Все треки извлечены точно

    Конец отчёта
    Scythia (2004)




    01. The Unity (01:24)
    02. Scythia (07:03)
    03. Forgotten Voice of black Perun (01:19)
    04. Shining Abyss (04:31)
    05. Forests of nerves (04:35)
    06. Attila (04:08)
    07. Herros (02:01)
    08. To those who came before us (11:08)

    Тривалість: 00:36:09
    Бітрейт: 474-890 кб/c
    log
    Отчёт EAC об извлечении, выполненном 17. ноября 2008, 0:02 для диска:
    hate forest / scythia

    Дисковод: PIONEER DVD-RW DVR-215D Adapter: 2 ID: 0
    Режим чтения: Достоверный (C2: нет, Точный поток: да, Отключение кэша: да)
    Коррекция смещения при чтении: 48
    Способность читать области Lead-in и Lead-out : Нет

    Выходной формат: Внутренние WAV-операции
    44.100 Гц; 16 бит; стерео

    Другие параметры:
    Заполнение пропущенных сэмплов тишиной : Да
    Удаление блоков с тишиной в начале и конце : Нет
    Установленный внешний ASPI-интерфейс

    Характеристики диапазона извлечения и сообщения об ошибках
    Выбранный диапазон
    Имя файла C:\hate forest - scythia.wav

    Пиковый уровень 99.3 %
    Качество диапазона 100.0 %
    CRC 946CCEE3
    Копирование... OK

    Ошибок не произошло

    Конец отчёта
    Sorrow (2005)




    01. Cold Of The Grave (03:55)
    02. Fullmoon (05:32)
    03. What The Ruins Remember (05:18)
    04. Fog (04:19)
    05. As The Sunlight Dies (04:02)
    06. Night Harvest (04:30)
    07. Chambers Of The Winds (04:20)

    Тривалість: 00:31:55
    Бітрейт: 995-1035 кб/c
    log
    Exact Audio Copy V0.99 prebeta 4 from 23. January 2008

    Отчёт EAC об извлечении, выполненном 4. мая 2009, 10:53

    Hate Forest / Sorrow

    Дисковод: HL-DT-STDVDRAM GSA-H10N Adapter: 0 ID: 0

    Режим чтения : Достоверность
    Использование точного потока : Да
    Отключение кэша аудио : Да
    Использование указателей C2 : Нет

    Коррекция смещения при чтении : 667
    Способность читать области Lead-in и Lead-out : Нет
    Заполнение пропущенных сэмплов тишиной : Да
    Удаление блоков с тишиной в начале и конце : Нет
    При вычислениях CRC использовались нулевые сэмплы : Да
    Интерфейс : Встроенный Win32-интерфейс для Win NT/2000

    Выходной формат : Внутренние WAV-операции
    Формат сэмплов : 44.100 Гц; 16 бит; стерео

    TOC извлечённого CD

    Трек | Старт | Длительность | Начальный сектор | Конечный сектор
    ---------------------------------------------------------------------
    1 | 0:00.00 | 3:55.12 | 0 | 17636
    2 | 3:55.12 | 5:32.22 | 17637 | 42558
    3 | 9:27.34 | 5:17.74 | 42559 | 66407
    4 | 14:45.33 | 4:19.06 | 66408 | 85838
    5 | 19:04.39 | 4:02.25 | 85839 | 104013
    6 | 23:06.64 | 4:30.26 | 104014 | 124289
    7 | 27:37.15 | 4:20.60 | 124290 | 143849

    Характеристики диапазона извлечения и сообщения об ошибках

    Выбранный диапазон

    Имя файла D:\01-TEMP-10\MP3\Hate Forest 2005 Sorrow.wav

    Пиковый уровень 100.0 %
    Качество диапазона 100.0 %
    CRC копии C2D91E45
    Копирование... OK

    Ошибок не произошло

    AccurateRip: сводка

    Трек 1 точное извлечение (доверие 4) [CF2B6E6A]
    Трек 2 точное извлечение (доверие 4) [DBE7C919]
    Трек 3 точное извлечение (доверие 4) [F6B3415D]
    Трек 4 точное извлечение (доверие 4) [134ED15C]
    Трек 5 точное извлечение (доверие 4) [E1452480]
    Трек 6 точное извлечение (доверие 4) [38641536]
    Трек 7 точное извлечение (доверие 4) [747325FB]

    Все треки извлечены точно

    Конец отчёта
    Nietzscheism (2005)




    01. Carl Orff — Fortuna Imperatrix Mundi (05:38)
    02. Annihilation (03:26)
    03. The Wood Brothers (04:41)
    04. Scythia (07:05)
    05. Shining Abyss (04:24)
    06. Aryosophia (06:54)
    07. Nietzscheism (07:12)
    08. Black God (06:25)
    09. Burning Churches (04:30)

    Тривалість: 00:50:15
    Бітрейт: 686-1088 кб/c

    Додаткова інформація:

    треки 2-3 - з "Resistance" EP (2004)
    треки 4-5 - з "Darkness" EP (2000)
    треки 6-7 - з "Blood And Fire" EP (2001)
    треки 8-9 - з "Ritual" EP (2001)
    log
    Exact Audio Copy V0.99 prebeta 4 from 23. January 2008

    Отчёт EAC об извлечении, выполненном 4. мая 2009, 11:05

    Hate Forest / Nietzscheism

    Дисковод: HL-DT-STDVDRAM GSA-H10N Adapter: 0 ID: 0

    Режим чтения : Достоверность
    Использование точного потока : Да
    Отключение кэша аудио : Да
    Использование указателей C2 : Нет

    Коррекция смещения при чтении : 667
    Способность читать области Lead-in и Lead-out : Нет
    Заполнение пропущенных сэмплов тишиной : Да
    Удаление блоков с тишиной в начале и конце : Нет
    При вычислениях CRC использовались нулевые сэмплы : Да
    Интерфейс : Встроенный Win32-интерфейс для Win NT/2000

    Выходной формат : Внутренние WAV-операции
    Формат сэмплов : 44.100 Гц; 16 бит; стерео

    TOC извлечённого CD

    Трек | Старт | Длительность | Начальный сектор | Конечный сектор
    ---------------------------------------------------------------------
    1 | 0:00.00 | 5:38.16 | 0 | 25365
    2 | 5:38.16 | 3:26.62 | 25366 | 40877
    3 | 9:05.03 | 4:41.60 | 40878 | 62012
    4 | 13:46.63 | 7:05.07 | 62013 | 93894
    5 | 20:51.70 | 4:24.46 | 93895 | 113740
    6 | 25:16.41 | 6:54.47 | 113741 | 144837
    7 | 32:11.13 | 7:12.59 | 144838 | 177296
    8 | 39:23.72 | 6:25.51 | 177297 | 206222
    9 | 45:49.48 | 4:30.05 | 206223 | 226477

    Характеристики диапазона извлечения и сообщения об ошибках

    Выбранный диапазон

    Имя файла D:\01-TEMP-10\MP3\Hate Forest 2005 Nietzscheism.wav

    Пиковый уровень 100.0 %
    Качество диапазона 100.0 %
    CRC копии F4345914
    Копирование... OK

    Ошибок не произошло

    AccurateRip: сводка

    Трек 1 точное извлечение (доверие 4) [E5B094A1]
    Трек 2 точное извлечение (доверие 4) [ABC15F79]
    Трек 3 точное извлечение (доверие 4) [95DB4226]
    Трек 4 точное извлечение (доверие 4) [A15870AF]
    Трек 5 точное извлечение (доверие 4) [965E9EA6]
    Трек 6 точное извлечение (доверие 4) [0F7E4060]
    Трек 7 точное извлечение (доверие 4) [D86AD5FF]
    Трек 8 точное извлечение (доверие 4) [C0BF2ED0]
    Трек 9 точное извлечение (доверие 4) [4CC03B87]

    Все треки извлечены точно

    Конец отчёта

Тривалість: 04:05:20
Мова: англійська (усі альбоми, крім половини треків "Battlefields" - українська (див. під спойлером)
Аудіо-кодек: FLAC
Бітрейт: 474-1088 кб/с, 16 bit / 44100 Hz
Джерело: інший трекер
Додаткова інформація:
Hate Forest було засновано 1995 року в українському місті Харкові Романом Саєнко, Thurios'ом та Khaoth'ом.
Підвалинами мистецтва групи була арійська/слов'янська міфологія, ніцшеанська філософія та ідеологія елітизму.
Група була активною з 1995 по 2007 рік, 2009 року вийшов останній на сьогодні реліз Hate Forest, що складався з невиданого матеріалу.


УВАГА! Роздача містить високоякісні скани поліграфії та дисків усіх альбомів, що до неї входять, а також фотографії вінілових релізів цих альбомів (задля кращої орієнтації гуртомівців у релізах групи).

Під дискографією тут мається на увазі збірка усіх повноформатних альбомів та офіційної компіляції " "Nietzscheism" 2005 року, укладеної з треків 4 EP та одного доти не виданого треку. Інші доступні в CD-якості релізи групи - в окремих роздачах.



Якщо Ви справді бажаєте підтримати українське - після прослуховування, якщо музика вам сподобалась, придбайте ліцензійний диск. Підтримаймо вітчизняних виконавців!


Золотий реліз (завантажене не впливає на рейтинг)
 Трекер:    Зареєстрований   

Завантажити / скачати українську музику



відео для новачків



 Зареєстрований:   2010-09-01 03:47
 Розмір:   1.59 GB 
 Оцінка музики:   9.3/10 (Голосів: 14)
   
Lev 
VIP


З нами з: 14.10.09
Востаннє: 05.12.16
Повідомлень: 1819

2010-09-01 20:02  
агов, шановні модери!
скоро доба релізу, час би "золото" давати!

aimtoknow 
VIP


З нами з: 29.11.09
Востаннє: 14.04.11
Повідомлень: 578

2010-09-05 14:29  
Дискографія буде виглядати приблизно так:

Scythia Demo, 1999
Darkness EP, 2000
The Curse Demo, 2000
Blood & Fire EP, 2001
Ritual EP, 2001
The Gates EP, 2001
The Most Ancient Ones Full-length, 2001
Blood & Fire / Ritual Best of/Compilation, 2001
To Those Who Came Before Us Best of/Compilation, 2002
Purity Full-length, 2003
To Twilight Thickets Best of/Compilation, 2003
Battlefields Full-length, 2003
Resistance EP, 2004
Sorrow Full-length, 2005
Nietzscheism Best of/Compilation, 2005
Temple Forest Demo, 2007
Hate Forest / Legion of Doom Split, 2008
Dead But Dreaming Best of/Compilation, 2009

Це якщо не брати до уваги перевидання.
Приміром Scythia:

Re-released in 1999 on tape by Pussy God Rec.
Re-released in 1999 on CD by Ancient Nation Prod.
Re-released in 2004 on CD by Supernal Music with a bonus track entitled "To
Those Who Came Before Us" - 11:08.
Re-released in 2004 on LP limited to 400 copies by Blutreinheit Prod.
Re-released on digi-CD in 2006 by Ancient Nation Prod.

Тож на мою думку, більш підійде слово "Збірка".
---
За реліз величезна подяка!!! Команда варта уваги і сумлінного прослуховування.

jinotot 
Почесний оцифрувальник літератури


З нами з: 28.01.09
Востаннє: 04.12.16
Повідомлень: 3235

2010-09-05 19:33  
aimtoknow, оце читав:
Lev написано:
Під дискографією тут мається на увазі збірка усіх повноформатних альбомів та офіційної компіляції " "Nietzscheism" 2005 року, укладеної з треків 4 EP та одного доти не виданого треку. Інші доступні в CD-якості релізи групи будуть викладені окремими роздачами згодом.
???
Lev 
VIP


З нами з: 14.10.09
Востаннє: 05.12.16
Повідомлень: 1819

2010-09-05 22:52  
aimtoknow

я не брав до уваги абсолютну більшість EP (крім The Gates (2001), яку ще викладу найближчим часом, так само як і компіляцію 2009 року, аджt вона містить раніше не виданий матеріал), так само і компіляції лишив мега-фанам, тут лише повноформатники та Nietzscheism (2005) (бо він містить матеріал кількох EP).

Lev 
VIP


З нами з: 14.10.09
Востаннє: 05.12.16
Повідомлень: 1819

2010-09-10 05:05  
aimtoknow написано:
За реліз величезна подяка!!! Команда варта уваги і сумлінного прослуховування.


стараємось Happy

aimtoknow 
VIP


З нами з: 29.11.09
Востаннє: 14.04.11
Повідомлень: 578

2010-09-10 08:14  
Lev
Жодних претензій. Я лише висловив своє бачення дискографії; тобто що це повний перелік створеного гуртом. Але я поважаю думку інших, і їхнє бачення того, що вони роблять.
---
Ще раз дякую як тобі, так і іншим (нас тут не багато), хто популяризує (саме так, а не піратствує) подібну творчість.

Lev 
VIP


З нами з: 14.10.09
Востаннє: 05.12.16
Повідомлень: 1819

2010-09-10 10:34  
aimtoknow написано:
Жодних претензій. Я лише висловив своє бачення дискографії; тобто що це повний перелік створеного гуртом. Але я поважаю думку інших, і їхнє бачення того, що вони роблять.


я зразу зрозумів, не переживай Happy
додав сьогодні одну компіляцію окремим релізом і ще EP викладу одну.

aimtoknow написано:
нас тут не багато

це точно Happy

Додано через 4 хвилини 37 секунд:

aimtoknow написано:
хто популяризує (саме так, а не піратствує) подібну творчість.


однозначно.
з нашими мізерними українськими тиражами та слабкою системою розповсюдження тільки так це і можна кваліфікувати Happy
коли диск часто-густо через якихось 5 років по виході стає раритетним, торрент - вкрай необхідна річ.

приміром, цьогорічний альбом "Ґорґішелі" вийшов тиражем 300 примірників, на такому фоні групи з 500-ма штуками (як наша) можуть вважатися середняками Happy)) а "Вій" з двома тисячами мало не мейджорами Happy))

aimtoknow 
VIP


З нами з: 29.11.09
Востаннє: 14.04.11
Повідомлень: 578

2010-09-19 20:30  
Зацініть які на musical-hall з'явилися футболки Hate Forest: http://musical-hall.com/product/new-hate-forest-dead-but-dreaming-ts-1135/ . КрасаHappy!
Swirl 
Оцифрування книг Гуртом
Оцифрування книг Гуртом


З нами з: 12.10.09
Востаннє: 24.02.15
Повідомлень: 495

2010-09-19 21:24  
Прикольні, тільки мені новий шрифт не подобається.
aimtoknow 
VIP


З нами з: 29.11.09
Востаннє: 14.04.11
Повідомлень: 578

2010-09-19 21:26  
Swirl написано:
Прикольні, тільки мені новий шрифт не подобається.

Як на мене, непогано. Зате оригінально Happy .

Swirl 
Оцифрування книг Гуртом
Оцифрування книг Гуртом


З нами з: 12.10.09
Востаннє: 24.02.15
Повідомлень: 495

2010-09-19 21:35  
У мене просто якісь дивні асоціації з цим шрифтом виникають) але які не скажу))
aimtoknow 
VIP


З нами з: 29.11.09
Востаннє: 14.04.11
Повідомлень: 578

2010-09-19 21:36  
Swirl написано:
У мене просто якісь дивні асоціації з цим шрифтом виникають) але які не скажу))

Буває Wide grin

Lev 
VIP


З нами з: 14.10.09
Востаннє: 05.12.16
Повідомлень: 1819

2010-11-29 10:30  
вийшло перевидання альбому Purity (2003) на CD


Swirl 
Оцифрування книг Гуртом
Оцифрування книг Гуртом


З нами з: 12.10.09
Востаннє: 24.02.15
Повідомлень: 495

2010-11-29 10:54  
Lev
Як завжди круте оформлення)

Lev 
VIP


З нами з: 14.10.09
Востаннє: 05.12.16
Повідомлень: 1819

2011-01-20 10:26  
HATE FOREST - Temple Forest - 12"LP (Lim. Ed. to 400) - Funeral Industries - 2010

замовляти тут
http://www.fog-music-shop.com/shop/hate-forest-temple-forest-12lp-p-1761.html
HATE FOREST - The Curse - 12"LP (Lim. Ed. to 400) - Funeral Industries - 2010

замовляти тут
http://www.fog-music-shop.com/shop/hate-forest-curse-12lp-p-1762.html

Lev 
VIP


З нами з: 14.10.09
Востаннє: 05.12.16
Повідомлень: 1819

2011-01-20 23:35  
The Gates
LP (RE, Ltd 400) - Funeral Industries - 2010



Додано через 6 хвилин 7 секунд:
+ ще два нових перевидання на касетах та одне - на вінілі
Dead But Dreaming
MC (Ltd 320) - Werewolf Promotion - 2010



Resistance
MC (Ltd 320) - Werewolf Promotion - 2010



Dead But Dreaming
LP - Primitive Reaction - 2010

Додано через 9 хвилин 21 секунду:

The Most Ancient Ones
CD (Digisleeve, RE) - Osmose Productions - 2010



Scythia
CD (+ bonus, Digisleeve, RE) - Osmose Productions - 2009


Lev 
VIP


З нами з: 14.10.09
Востаннє: 05.12.16
Повідомлень: 1819

2011-05-26 23:43  
Нові перевидання від Osmose Productions

LP


LP (Limited edition to 500 copies)


Digisleeve CD

lhaw 
Поважний учасник


З нами з: 11.03.09
Востаннє: 16.09.16
Повідомлень: 232

2011-10-27 17:33  
скани перевидань
http://upload.com.ua/get/902880567/purity.rar
http://upload.com.ua/get/902880575/battlefields.rar

Swirl 
Оцифрування книг Гуртом
Оцифрування книг Гуртом


З нами з: 12.10.09
Востаннє: 24.02.15
Повідомлень: 495

2011-10-28 08:25  
lhaw
дякую, забрав.

Lev 
VIP


З нами з: 14.10.09
Востаннє: 05.12.16
Повідомлень: 1819

2011-11-01 14:24  
lhaw продублюй на людському ф-обміннику, mediafire наприклад.
lhaw 
Поважний учасник


З нами з: 11.03.09
Востаннє: 16.09.16
Повідомлень: 232

2011-11-01 15:40  
скани перевидань
http://www.mediafire.com/?1s0owj29rsxorim
http://www.mediafire.com/?ui44ybaj4fu1ful

Lev 
VIP


З нами з: 14.10.09
Востаннє: 05.12.16
Повідомлень: 1819

2011-11-24 22:25  
lhaw

дякую

Oleksa9 
Поважний учасник


З нами з: 17.05.12
Востаннє: 07.12.16
Повідомлень: 225

2012-05-17 21:49  
Усі альбоми Hate Forest - незаперечні шедеври чорного металу!
Ваш часовий пояс: GMT + 2 Години

Нова тема   Відповісти