Завантажити та скачати торренти українською


Dark Ages - Twilight Of Europe (2005) [FLAC] | Dark Ambient

Нові коментарі

Нова тема   Відповісти
Останній раз роздавалося Myfordownloads (2016-10-09)
Автор Повідомлення
Lev 
VIP


З нами з: 14.10.09
Востаннє: 09.12.16
Повідомлень: 1819

2010-08-28 15:56  
Dark Ages - Twilight Of Europe (2005) [FLAC] | Dark Ambient



Стиль: Dark Ambient
Країна, місто: Україна, Харків
Видавець: Supernal Music (Велика Британія)
Виконавці:
Роман Саєнко - вся музика
Пісні:
    01. Breath Of The Black Plague (4:59)
    02. Birth Of The Antichrist (4:26)
    03. Dungeons (3:01)
    04. Art Of The Dark Ages (3:09)
    05. Gothic Architecture (4:34)
    06. Malleus Maleficarum (5:02)
    07. Fate Of The Templars (3:50)
    08. Rise And Fall Of Empires (5:12)
    09. Formulas Written In Blood (2:37)
    10. Walpurgis Nacht (2:27)
    11. Ignorance (4:00)
log
Exact Audio Copy V0.99 prebeta 4 from 23. January 2008

EAC extraction logfile from 30. November 2009, 11:46

Dark Ages / Twilight Of Europe

Used drive : Optiarc DVD RW AD-7243S Adapter: 2 ID: 0

Read mode : Secure
Utilize accurate stream : Yes
Defeat audio cache : Yes
Make use of C2 pointers : No

Read offset correction : 48
Overread into Lead-In and Lead-Out : No
Fill up missing offset samples with silence : Yes
Delete leading and trailing silent blocks : No
Null samples used in CRC calculations : Yes
Used interface : Installed external ASPI interface

Used output format : User Defined Encoder
Selected bitrate : 768 kBit/s
Quality : High
Add ID3 tag : No
Command line compressor : C:\Program Files\Exact Audio Copy\FLAC\FLAC.EXE
Additional command line options : -6 -V -T "ARTIST=%a" -T "TITLE=%t" -T "ALBUM=%g" -T "DATE=%y" -T "TRACKNUMBER=%n" -T "GENRE=%m" -T "COMMENT=%e" %s -o %d

TOC of the extracted CD

Track | Start | Length | Start sector | End sector
---------------------------------------------------------
1 | 0:00.00 | 4:58.41 | 0 | 22390
2 | 4:58.41 | 4:25.71 | 22391 | 42336
3 | 9:24.37 | 3:01.00 | 42337 | 55911
4 | 12:25.37 | 3:09.25 | 55912 | 70111
5 | 15:34.62 | 4:34.11 | 70112 | 90672
6 | 20:08.73 | 5:02.34 | 90673 | 113356
7 | 25:11.32 | 3:50.13 | 113357 | 130619
8 | 29:01.45 | 5:12.27 | 130620 | 154046
9 | 34:13.72 | 2:36.59 | 154047 | 165805
10 | 36:50.56 | 2:27.33 | 165806 | 176863
11 | 39:18.14 | 3:59.49 | 176864 | 194837

Range status and errors

Selected range

Filename E:\Dark Ages.wav

Peak level 99.5 %
Range quality 100.0 %
Test CRC 628CD9FF
Copy CRC 628CD9FF
Copy OK

No errors occurred

AccurateRip summary

Track 1 not present in database
Track 2 not present in database
Track 3 not present in database
Track 4 not present in database
Track 5 not present in database
Track 6 not present in database
Track 7 not present in database
Track 8 not present in database
Track 9 not present in database
Track 10 not present in database
Track 11 accurately ripped (confidence 1) [CFDA4AF5]

1 track(s) accurately ripped
0 track(s) not present in the AccurateRip database

Some tracks could not be verified as accurate

End of status report
Тривалість: 00:43:18
Мова: нема
Аудіо-кодек: FLAC
Бітрейт: 405-902 кб/с, , 16 bit / 44100 Hz
Джерело: інший торент-трекер
Додаткова інформація:
Dark Ages це мінімалістичний Dark Ambient проект Романа Саєнка - лідера гуртів Drudkh, Blood of Kingu та Hate Forest. Музичні композиції натхнені історією середньовічної Європи.


Роздача містить якісні скани буклету.

Якщо Ви справді бажаєте підтримати українське - після прослуховування, якщо музика вам сподобалась, придбайте ліцензійний диск. Підтримаймо вітчизняних виконавців!


Срібний реліз (на рейтинг впливає 50% завантаженого)
 Трекер:    Зареєстрований   

Завантажити / скачати українську музику



відео для новачків



 Зареєстрований:   2010-08-28 15:56
 Розмір:   230 MB 
 Оцінка музики:   9.2/10 (Голосів: 5)
   
Swirl 
Оцифрування книг Гуртом
Оцифрування книг Гуртом


З нами з: 12.10.09
Востаннє: 24.02.15
Повідомлень: 495

2010-08-28 16:45  
Lev
Дякую за скани, ніде не зустрічав.

Lev 
VIP


З нами з: 14.10.09
Востаннє: 09.12.16
Повідомлень: 1819

2010-08-28 17:25  
Swirl

молоток, шо цінуєш раритетище Happy

aimtoknow 
VIP


З нами з: 29.11.09
Востаннє: 14.04.11
Повідомлень: 578

2010-09-17 18:37  
Щось у мене ця робота пройшла повз. Не розумію я такої музики.
Ну і не знаю наскільки це раритет, якщо його можна придбати тут: http://www.fog-music-shop.com/shop/dark-ages-twilight-europe-digi-p-1144.html, ще й за помірну ціну Happy .

Lev 
VIP


З нами з: 14.10.09
Востаннє: 09.12.16
Повідомлень: 1819

2010-09-24 21:56  
aimtoknow написано:
Ну і не знаю наскільки це раритет, якщо його можна придбати тут: http://www.fog-music-shop.com/shop/dark-ages-twilight-europe-digi-p-1144.html, ще й за помірну ціну .


теж нещодавно помітив цю пропозицію Happy
ну, помірний раритет, виходить - все одно треба ще знати де замовляти Happy

Litovchik 
Частий відвідувач


З нами з: 29.03.09
Востаннє: 07.11.16
Повідомлень: 26

2011-04-14 23:09  
я щось також ніц корисного для себе не помітив. може комусь подобається таке, але точно не мені
alex_blank 
Частий відвідувач


З нами з: 03.01.10
Востаннє: 10.12.16
Повідомлень: 28

2011-07-08 22:28  
А чи нема у когось можливості зробити потрековий рип ? Я знаю як розрізати, просто потрібен справжній потрековий рип з логом.
ssTAss 
Модератор музики


З нами з: 05.07.08
Востаннє: 10.12.16
Повідомлень: 10951

2011-07-08 22:32  
alex_blank написано:
просто потрібен справжній потрековий рип з логом.

запустіть цей ріп через CUETools і будете мати справжній потрековий ріп з логом

Lev 
VIP


З нами з: 14.10.09
Востаннє: 09.12.16
Повідомлень: 1819

2012-02-02 12:14  
Litovchik написано:
я щось також ніц корисного для себе не помітив. може комусь подобається таке, але точно не мені


підрости треба Wide grin

Ваш часовий пояс: GMT + 2 Години

Нова тема   Відповісти