Завантажити та скачати торренти українською


Щось / The Thing (1982) 720 Ukr/Eng | Sub Rus/Eng

Нові коментарі

Нова тема   Відповісти
Автор Повідомлення
vitalicio 
VIP


З нами з: 28.06.09
Востаннє: 06.12.16
Повідомлень: 275

2010-08-26 11:22  
Щось / The Thing (1982) 720 Ukr/Eng | Sub Rus/Eng



Жанр: жахи, фантастика, трилер
Країна: США

Топ 250 #145

Кіностудія / кінокомпанія: Universal Pictures
Режисер: Джон Карпентер
Актори: Курт Рассел, Уілфорд Брімлі, Т.К. Картер, Девід Кленнон, Кіт Девід, Річард А. Дайсарт, Чарльз Хеллахан, Пітер Мелоуні, Річард Мейсер, Дональд Моффет

Сюжет:
Команді вчених американської дослідницької бази в Антарктиці доведеться зіткнутися з нез'ясовним, жахливим кошмаром. Відрізані від усього світу полярники вступають у нерівну сутичку з інопланетною тварюкою, яка пробудилася після тисячолітньої сплячки в льодах, нещадною істотою, яка прокинулося і ... зголодніла ... «Щось» вважається не тільки кращим фільмом відомого фахівця з жахів, режисера Джона Карпентера, але й мабуть одним з кращих фантастичних фільмів минулого двадцятого століття. Картина виключно напружена. Відмінна, страшна музика. Спец-ефекти початку вісімдесятих зроблені настільки реально, що навіть сьогодні виглядають більш ніж гідно ...


Тривалість: 01:48:42
Якість: 720p
Відео:
кодек:
розмір кадру: 1280 x 544
бітрейт: 4246 кб/с

Аудіо # 1:
мова: українська
переклад: багатоголосий закадровий
кодек: 5.1
бітрейт: 384 кб/с

Аудіо # 2:
мова: англійська
переклад: оригінал
кодек: 5.1
бітрейт: 1536 кб/с

Переклад і озвучення виконано:


Субтитри:
мова: російська
тип: програмні (м'які)
формат: *.srt

Субтитри:
мова: англійська
тип: програмні (м'які)
формат: *.srt
MediaInfo
Код:
General
Complete name                    : V:\The Thing.1982.(ukr,eng.),720p.mkv
Format                           : Matroska
File size                        : 4.66 GiB
Duration                         : 1h 48mn
Overall bit rate                 : 6 143 Kbps
Movie name                       : --SCHUMAHER--
Encoded date                     : UTC 2010-08-26 08:26:20
Writing application              : mkvmerge v2.4.2 ('Oh My God') built on Jan 18 2009 17:30:28
Writing library                  : libebml v0.7.7 + libmatroska v0.8.1

Video
ID                               : 1
Format                           : AVC
Format/Info                      : Advanced Video Codec
Format profile                   : [email protected]
Format settings, CABAC           : Yes
Format settings, ReFrames        : 8 frames
Muxing mode                      : Container [email protected]
Codec ID                         : V_MPEG4/ISO/AVC
Duration                         : 1h 48mn
Bit rate                         : 4 127 Kbps
Nominal bit rate                 : 4 246 Kbps
Width                            : 1 280 pixels
Height                           : 544 pixels
Display aspect ratio             : 2.35:1
Frame rate                       : 23.976 fps
Resolution                       : 24 bits
Colorimetry                      : 4:2:0
Scan type                        : Progressive
Bits/(Pixel*Frame)               : 0.247
Stream size                      : 3.13 GiB (67%)
Title                            : (English)
Writing library                  : core 65 r1069M ed32ad2
Encoding settings                : cabac=1 / ref=8 / deblock=1:-2:-1 / analyse=0x3:0x113 / me=umh / subme=6 / psy_rd=1.0:0.0 / mixed_ref=1 / me_range=16 / chroma_me=1 / trellis=1 / 8x8dct=1 / cqm=0 / deadzone=21,11 / chroma_qp_offset=-2 / threads=6 / nr=0 / decimate=1 / mbaff=0 / bframes=16 / b_pyramid=1 / b_adapt=1 / b_bias=0 / direct=3 / wpredb=1 / keyint=250 / keyint_min=25 / scenecut=40(pre) / rc=2pass / bitrate=4246 / ratetol=1.0 / qcomp=0.60 / qpmin=10 / qpmax=51 / qpstep=4 / cplxblur=20.0 / qblur=0.5 / ip_ratio=1.40 / pb_ratio=1.30 / aq=1:1.00
Language                         : English

Audio #1
ID                               : 2
Format                           : AC-3
Format/Info                      : Audio Coding 3
Codec ID                         : A_AC3
Duration                         : 1h 48mn
Bit rate mode                    : Constant
Bit rate                         : 384 Kbps
Channel(s)                       : 6 channels
Channel positions                : Front: L C R, Surround: L R, LFE
Sampling rate                    : 48.0 KHz
Stream size                      : 299 MiB (6%)
Title                            : (Многоголосый - Так треба продакшн)
Language                         : Ukrainian

Audio #2
ID                               : 3
Format                           :
Format/Info                      : Digital Theater Systems
Codec ID                         : A_DTS
Duration                         : 1h 48mn
Bit rate mode                    : Constant
Bit rate                         : 1 510 Kbps
Channel(s)                       : 6 channels
Channel positions                : Front: L C R, Surround: L R, LFE
Sampling rate                    : 48.0 KHz
Resolution                       : 24 bits
Stream size                      : 1.15 GiB (25%)
Title                            : (English)
Language                         : English

Text #1
ID                               : 4
Format                           : UTF-8
Codec ID                         : S_TEXT/UTF8
Codec ID/Info                    : UTF-8 Plain Text
Title                            : Forced
Language                         : Russian

Text #2
ID                               : 5
Format                           : UTF-8
Codec ID                         : S_TEXT/UTF8
Codec ID/Info                    : UTF-8 Plain Text
Title                            : (English)
Language                         : English
Скріншоти:
Переглянути




Джерело:
Особиста оцінка: 10 - без зайвих вагань рекомендую всім!

Інші релізи:

Щось / The Thing (1982) Ukr/Eng 2.18 GB by Romario_O


Срібний реліз (на рейтинг впливає 50% завантаженого)
 Трекер:    Зареєстрований   

Завантажити / скачати фільм українською



відео для новачків



 Зареєстрований:   2010-08-26 11:22
 Розмір:   4.66 GB 
 Оцінка фільму:   9.8/10 (Голосів: 20)
   
Інші релізи
   Щось / The Thing (1982) 2xUkr/Eng | Sub Ukr/Eng karvai0  4 / 0   2.18 GB   2014-11-30 12:05 
   Щось / The Thing (1982) 1080p 2xUkr/Eng | Sub Ukr / Eng Sando7  5 / 0   4.66 GB   2014-11-27 13:02 
   Щось / The Thing (1982) DVD5 Ukr/Eng | Sub Ukr/Eng/Rus kinoreliz  1 / 0   4.2 GB   2014-02-24 08:40 
seroga13 
VIP


З нами з: 22.06.09
Востаннє: 07.12.16
Повідомлень: 257

2011-07-24 20:41  
в жовтні вийде рімейк
Darth Vladius 
Частий відвідувач


З нами з: 18.08.11
Востаннє: 26.11.16
Повідомлень: 27

2011-09-12 00:51  
seroga13 написано:
в жовтні вийде рімейк

Без Курта це вже не те кіно буде(

rvvik 
Новенький


З нами з: 04.01.10
Востаннє: 30.08.16
Повідомлень: 4

2011-09-27 13:18  
в жовтні, панове, має вийти пріквел,тбт., передісторія - - має бути цікаво Wink (1)

дякую автору за реліз - курт справді суперовий актор!!!!

Додано через 18 хвилин 56 секунд:

http://www.comingsoon.net/news/movienews.php?id=79822

ось лінк на трейлер Wink (1)

SK1974 
Новенький


З нами з: 15.01.11
Востаннє: 07.12.16
Повідомлень: 15

2011-11-26 16:41  
вийшов рімейк.зовсім інший фільм ніж 1982 року
seroga13 
VIP


З нами з: 22.06.09
Востаннє: 07.12.16
Повідомлень: 257

2013-11-02 12:55  
Як на мене перший кращий!
MykhayloМ 
Свій


З нами з: 05.01.13
Востаннє: 06.12.16
Повідомлень: 54

2014-12-13 09:04  
Перший фільм - Карпентера - ЗНАЧНО кращий ! Одна тільки музика Енніо Моріконе ідеально точно лягає в настрій фільму .

Другий фільм , рімейк , - бліда тінь фільму Карпентера .

Maters 
VIP


З нами з: 27.03.12
Востаннє: 07.12.16
Повідомлень: 1161

2016-06-12 20:14  
Досить крутий фільмак як на 82 рік. трохи мультиплікований, але мені сподобався ))
Ваш часовий пояс: GMT + 2 Години

Нова тема   Відповісти