Завантажити та скачати торренти українською


Qzzaargh vs Перкалаба (2006) [FLAC] | Ska / Folk / Reggae / Electronic

Нові коментарі

Нова тема   Відповісти
Автор Повідомлення
Lev 
VIP


З нами з: 14.10.09
Востаннє: 28.11.16
Повідомлень: 1819

2010-08-25 11:33  
Qzzaargh vs Перкалаба (2006) [FLAC] | Ska / Folk / Reggae / Electronic



Стиль: Ska / Folk / Reggae / Electronic
Країна, місто: Україна, Івано-Франківськ - Росія, Москва
Сайти: Офіційний сайт
Видавець: AtomCat
Виконавці:
Qzzaargh (Сергій Кузьмінський) - реміксування, електронні інструменти

Андрій "Федот" Федотов - вокал
Ярема Стецик - тарелі, бек-вокал
Ігор "Моряк"Шургот - бас-гітара
Володимир "Вовєнджя" Шотурма - цимбали
Серьога Шваюк - труба
Віктор Степанюк - тромбон
Ігорко Римик - барабани
Пісні:
    01. Бугай (03:45)
    02. Горрри! (05:44)
    03. Гулєй (03:40)
    04. Купатись голяка (06:39)
    05. Любові поклик Ау-Уа (07:07)
    06. Льотчик (05:34)
    07. Свято грибів і форелів (05:40)
    08. Теща (05:54)
    log-файл
    Exact Audio Copy V0.99 prebeta 4 from 23. January 2008

    Отчёт EAC об извлечении, выполненном 11. мая 2008, 13:19

    Various / qzzaargh vs. Перкалаба

    Дисковод: Optiarc DVD RW AD-7203A Adapter: 0 ID: 0

    Режим чтения : Достоверность
    Использование точного потока : Да
    Отключение кэша аудио : Да
    Использование указателей C2 : Нет

    Коррекция смещения при чтении : 102
    Способность читать области Lead-in и Lead-out : Нет
    Заполнение пропущенных сэмплов тишиной : Да
    Удаление блоков с тишиной в начале и конце : Нет
    При вычислениях CRC использовались нулевые сэмплы : Нет
    Интерфейс : Встроенный Win32-интерфейс для Win NT/2000

    Выходной формат : Внутренние WAV-операции
    Формат сэмплов : 44.100 Гц; 16 бит; стерео

    TOC извлечённого CD

    Трек | Старт | Длительность | Начальный сектор | Конечный сектор
    ---------------------------------------------------------------------
    1 | 0:00.00 | 3:47.16 | 0 | 17040
    2 | 3:47.16 | 5:45.45 | 17041 | 42960
    3 | 9:32.61 | 3:42.21 | 42961 | 59631
    4 | 13:15.07 | 6:40.70 | 59632 | 89701
    5 | 19:56.02 | 7:09.35 | 89702 | 121911
    6 | 27:05.37 | 5:36.24 | 121912 | 147135
    7 | 32:41.61 | 5:42.14 | 147136 | 172799
    8 | 38:24.00 | 5:53.66 | 172800 | 199340

    Характеристики диапазона извлечения и сообщения об ошибках

    Выбранный диапазон

    Имя файла C:\Documents and Settings\Чигарак\Рабочий стол\Perkalaba\2006 - Qzzaargh vs Перкалаба (remixes)\qzzaargh vs. Перкалаба.wav

    Пиковый уровень 100.0 %
    Качество диапазона 100.0 %
    CRC копии 5E76797F
    Копирование... OK

    Ошибок не произошло

Тривалість: 00:44:01
Мова: українська
Аудіо-кодек: FLAC
Бітрейт: 803-985 кб/с
Джерело: CD-ріп ->конвертація у FLAC -> інший торрент-трекер



Якщо Ви справді бажаєте підтримати українське - після прослуховування, якщо музика вам сподобалась, придбайте ліцензійний диск. Підтримаймо вітчизняних виконавців!


Срібний реліз (на рейтинг впливає 50% завантаженого)
 Трекер:    Зареєстрований   

Завантажити / скачати українську музику



відео для новачків



 Зареєстрований:   2010-08-25 11:33
 Розмір:   287 MB 
 Оцінка музики:   10/10 (Голосів: 12)
   
Ваш часовий пояс: GMT + 2 Години

Нова тема   Відповісти