Завантажити та скачати торренти українською


Fleur - Тысяча светлых ангелов [2 CD] (2010) [FLAC] | Progressive Rock / Cardiowave / Alternative

Нові коментарі

Нова тема   Відповісти
Останній раз роздавалося natashelka (2016-12-04)
Автор Повідомлення
Lev 
VIP


З нами з: 14.10.09
Востаннє: 05.12.16
Повідомлень: 1819

2010-08-25 06:50  
Fleur - Тысяча светлых ангелов [2 CD] (2010) [FLAC] | Progressive Rock / Cardiowave / Alternative



Стиль: Progressive Rock / Cardiowave / Alternative
Країна, місто: Україна, Одеса
Сайти: Офіційний сайт
Видавець: Сardiowave
Виконавці:
Ольга Пулатова – вокал, рояль, синтезатор
Олена Войнаровська – вокал, гітари, рояль
Катерина Котельнікова – синтезатори, рояль, бек-вокал
Анастасія Кузьміна – скрипка, сопілки, окарина, мелодика, варган, іграшкове піаніно
Олексій Ткачевський – барабани, перкусія
Георгій Матвіїв – бандура
Євген Чеботаренко (гр.My Personal Murderer) – бас-гітара
Владислав Міцовський – перкусія
Андрій Басов (гр.Легендарные Пластилиновые Ноги) – гітари, бек-вокал
Людмила Корецька – віолончель
Анастасія Звелиндовська – флейта
Андрій Охрамович – труба
Олексій Морозевич – гобой
Павло Голубовський – гітари, звуки

Пісні:
    CD 1 :

    01. Интро (0:47)
    02. Зов маяка (04:28)
    03. Разбег (05:03)
    04. Человек 33 черты (06:56)
    05. Дирижабли (03:53)
    06. Да, это так (04:42)
    07. Расскажи мне о своей катастрофе (06:13)
    08. Розовый слон (05:06)
    09. Амулет (07:51)

    СD 2 :

    01. Камень (03:30)
    02. Качели (04:53)
    03. Летняя ночь, летящая в пустоте (07:52)
    04. Апрельское утро (05:01)
    05. Тёплая осень (03:33)
    06. Лунные лилии (06:07)
    07. Последний танец зимы (05:38)
    08. Непобедимая армия (05:27)
    CD1 log-файл
    Exact Audio Copy V0.99 prebeta 5 from 4. May 2009

    EAC extraction logfile from 16. May 2010, 18:28

    Flёur / Тысяча светлых ангелов (Часть 1)

    Used drive : ASUS CRW-5232AS Adapter: 3 ID: 1

    Read mode : Secure
    Utilize accurate stream : Yes
    Defeat audio cache : Yes
    Make use of C2 pointers : No

    Read offset correction : 6
    Overread into Lead-In and Lead-Out : No
    Fill up missing offset samples with silence : Yes
    Delete leading and trailing silent blocks : No
    Null samples used in CRC calculations : Yes
    Used interface : Installed external ASPI interface

    Used output format : Monkey's Audio Lossless Encoder v3.99 DLL
    Sample format : Normal Lossless Compression

    TOC of the extracted CD

    Track | Start | Length | Start sector | End sector
    ---------------------------------------------------------
    1 | 0:00.00 | 0:47.25 | 0 | 3549
    2 | 0:47.25 | 4:27.43 | 3550 | 23617
    3 | 5:14.68 | 5:03.35 | 23618 | 46377
    4 | 10:18.28 | 6:55.64 | 46378 | 77566
    5 | 17:14.17 | 3:53.34 | 77567 | 95075
    6 | 21:07.51 | 4:41.48 | 95076 | 116198
    7 | 25:49.24 | 6:13.09 | 116199 | 144182
    8 | 32:02.33 | 5:06.31 | 144183 | 167163
    9 | 37:08.64 | 7:51.15 | 167164 | 202503

    Range status and errors

    Selected range

    Filename Z:\!tracker\FLEUR\2010 - (Studio) - Tycjacha Svetlyh Angelov\CD1\Fleur - Tysyacha Svetlyh Angelov (Chast 1).ape

    Peak level 100.0 %
    Range quality 100.0 %
    Test CRC 338E54D6
    Copy CRC 338E54D6
    Copy OK

    No errors occurred

    AccurateRip summary

    Track 1 not present in database
    Track 2 not present in database
    Track 3 not present in database
    Track 4 not present in database
    Track 5 not present in database
    Track 6 not present in database
    Track 7 not present in database
    Track 8 not present in database
    Track 9 not present in database

    None of the tracks are present in the AccurateRip database

    End of status report
    CD2 log-файл
    Exact Audio Copy V0.99 prebeta 5 from 4. May 2009

    EAC extraction logfile from 16. May 2010, 19:35

    Flёur / Тысяча светлых ангелов (Часть 2)

    Used drive : ASUS CRW-5232AS Adapter: 3 ID: 1

    Read mode : Secure
    Utilize accurate stream : Yes
    Defeat audio cache : Yes
    Make use of C2 pointers : No

    Read offset correction : 6
    Overread into Lead-In and Lead-Out : No
    Fill up missing offset samples with silence : Yes
    Delete leading and trailing silent blocks : No
    Null samples used in CRC calculations : Yes
    Used interface : Installed external ASPI interface

    Used output format : Monkey's Audio Lossless Encoder v3.99 DLL
    Sample format : Normal Lossless Compression

    TOC of the extracted CD

    Track | Start | Length | Start sector | End sector
    ---------------------------------------------------------
    1 | 0:00.00 | 3:30.31 | 0 | 15780
    2 | 3:30.31 | 4:53.19 | 15781 | 37774
    3 | 8:23.50 | 7:02.36 | 37775 | 69460
    4 | 15:26.11 | 5:00.63 | 69461 | 92023
    5 | 20:26.74 | 3:33.29 | 92024 | 108027
    6 | 24:00.28 | 6:06.38 | 108028 | 135515
    7 | 30:06.66 | 5:38.10 | 135516 | 160875
    8 | 35:45.01 | 5:27.00 | 160876 | 185400

    Range status and errors

    Selected range

    Filename Z:\!tracker\FLEUR\2010 - (Studio) - Tycjacha Svetlyh Angelov\CD2\Fleur - Tysyacha Svetlyh Angelov (Chast 2).ape

    Peak level 100.0 %
    Range quality 100.0 %
    Test CRC 246D9A6A
    Copy CRC 246D9A6A
    Copy OK

    No errors occurred

    AccurateRip summary

    Track 1 not present in database
    Track 2 not present in database
    Track 3 not present in database
    Track 4 not present in database
    Track 5 not present in database
    Track 6 not present in database
    CD 1 спектр
    СD 2 спектр

Тривалість: 01:26:13
Мова: російська
Аудіо-кодек: FLAC
Бітрейт: 619-1034 кб/с, 16 bit / 44100 Hz
Джерело: CD-rip -> конвертація у FLAC -> інтернет
Додаткова інформація:
Новий альбом “Тысяча светлых ангелов” на CD можна буде придбати, починаючи з 22 квітня на концертах українського туру групи.
До завершення туру в роздрібний продаж альбом не надійде.

(…)

Вчора, 16 квітня, нарешті було завершено роботу над альбомом “Тысяча светлых ангелов”. Робота колосальна, незмірна за обсягами та кількістю докладених зусиль. Ми дослівно потонули у накопиченому на студії матеріалі. Та й кількісnь людей, що зробили свій внесок у роботу здивувала нас самих. Завдяки цьому та дивовижній різноманітності пісень, альбом вийшов яскравим та динамічним.
Його створення можна порівняти з народженням дитини – це копітка праця, що вимагає неймовірної офіри, і водночас – таїнство. І тому це приносить таку радість та умиротворення. Підбито підсумок, всі хвилювання та переживання лишилися позаду. За вікнами – квітень, все квітне, зеленіє, тягнеться до сонця, все співає і прославляє Життя.
Слова вдячності та перерахування імен не зможуть передати нашу вдячність кожному, хто зробив свій внесок до альбому. Своєю майстерністю і талантом, людською добротою та підтримкою, близько та на відстані. Хай нашею вдячністю буде музика і хай цей альбом принесе усім мир та любов, натхнення і красу, радість і мудрість.

(з оф.сайту, переклад мій)


Роздача містить повний комплект високоякісних сканів буклету.

Якщо Ви справді бажаєте підтримати українське - після прослуховування, якщо музика вам сподобалась, придбайте ліцензійний диск. Підтримаймо вітчизняних виконавців!


Срібний реліз (на рейтинг впливає 50% завантаженого)
 Трекер:    Зареєстрований   

Завантажити / скачати українську музику



відео для новачків



 Зареєстрований:   2010-08-25 06:57
 Розмір:   612 MB 
 Оцінка музики:   8.7/10 (Голосів: 15)
   
pop_v_trysah 
Поважний учасник


З нами з: 16.01.09
Востаннє: 03.12.16
Повідомлень: 237

2013-01-08 16:36  
поверніться будь ласка на роздачу.
natashelka 
VIP


З нами з: 23.05.10
Востаннє: 04.12.16
Повідомлень: 441

2015-05-09 20:58  
класно. хоч і неканонічно)
Ваш часовий пояс: GMT + 2 Години

Нова тема   Відповісти