Завантажити та скачати торренти українською


Nokturnal Mortum - Live in Katowice [live] (2009) [APE] | Pagan Black Metal

Нові коментарі

Нова тема   Відповісти
Останній раз роздавалося shtoz (2011-12-22)
Автор Повідомлення
aimtoknow 
VIP


З нами з: 29.11.09
Востаннє: 14.04.11
Повідомлень: 578

2010-08-16 17:05  
Nokturnal Mortum - Live in Katowice [live] (2009) [APE] | Pagan Black Metal


Стиль: Pagan Black Metal
Країна, місто: Україна, Харків
Сайти:
Видавець: No Colours Records
Виконавці:
Knjaz Varggoth - гітара, вокал
Vrolok - бас
Astargh - гітара
Saturious - клавішні
Odalv - барабани

Пісні:
    01. Черный ворон
    02. Мировоззрение
    03. Коляда
    04. Валькирия
    05. Небесное серебо Перуна
    06. Слава героям
    07. В огне деревянных церквей

Тривалість: 00:46:52
Мова: українська (3,6), російська (1,2,4,5,7)
Аудіо-кодек: APE
Бітрейт: 907 кб/с
log
Exact Audio Copy V0.99 prebeta 4 from 23. January 2008

EAC extraction logfile from 9. March 2009, 22:07

Live In Katowice / Nokturnal Mortum

Used drive : ASUS DVD-E616A3T Adapter: 1 ID: 0

Read mode : Secure
Utilize accurate stream : Yes
Defeat audio cache : Yes
Make use of C2 pointers : No

Read offset correction : 6
Overread into Lead-In and Lead-Out : No
Fill up missing offset samples with silence : Yes
Delete leading and trailing silent blocks : No
Null samples used in CRC calculations : Yes
Used interface : Installed external ASPI interface

Used output format : Monkey's Audio Lossless Encoder
Selected bitrate : High Lossless Compression
Quality : High
Add ID3 tag : Yes
Command line compressor : C:\Program Files\Monkey's Audio\MAC.exe

TOC of the extracted CD

Track | Start | Length | Start sector | End sector
---------------------------------------------------------
1 | 0:00.00 | 6:21.12 | 0 | 28586
2 | 6:21.12 | 7:44.39 | 28587 | 63425
3 | 14:05.51 | 5:54.02 | 63426 | 89977
4 | 19:59.53 | 10:38.47 | 89978 | 137874
5 | 30:38.25 | 6:11.56 | 137875 | 165755
6 | 36:50.06 | 7:54.67 | 165756 | 201372
7 | 44:44.73 | 2:07.47 | 201373 | 210944

Range status and errors

Selected range

Filename C:\Music\Nokturnal Mortum - Live In Katowice\CD\Live In Katowice - Nokturnal Mortum.wav

Peak level 98.9 %
Range quality 99.9 %
Copy CRC 78504DD5
Copy OK

No errors occurred

End of status report
cue
REM GENRE "Black Metal"
REM DATE 2009
REM DISCID 510AFC07
REM COMMENT "ExactAudioCopy v0.99pb4"
PERFORMER "Live In Katowice"
TITLE "Nokturnal Mortum"
FILE "Live In Katowice - Nokturnal Mortum.ape" WAVE
TRACK 01 AUDIO
TITLE "Черный Ворон"
PERFORMER "Live In Katowice"
INDEX 01 00:00:00
TRACK 02 AUDIO
TITLE "Мировоззрение"
PERFORMER "Live In Katowice"
INDEX 00 06:21:11
INDEX 01 06:21:12
TRACK 03 AUDIO
TITLE "Коляда"
PERFORMER "Live In Katowice"
INDEX 01 14:05:51
TRACK 04 AUDIO
TITLE "Валькирия"
PERFORMER "Live In Katowice"
INDEX 01 19:59:53
TRACK 05 AUDIO
TITLE "Небесное Серебро Перуна"
PERFORMER "Live In Katowice"
INDEX 00 30:38:24
INDEX 01 30:38:25
TRACK 06 AUDIO
TITLE "Слава Героям"
PERFORMER "Live In Katowice"
INDEX 00 36:50:05
INDEX 01 36:50:06
TRACK 07 AUDIO
TITLE "В Огне Деревянных Церквей"
PERFORMER "Live In Katowice"
INDEX 01 44:44:73
Джерело:
Також на Гуртом можна завантажити:
Якщо Ви справді бажаєте підтримати українське - після прослуховування, якщо музика вам сподобалась, придбайте ліцензійний диск.
Підтримаймо вітчизняних виконавців!


Срібний реліз (на рейтинг впливає 50% завантаженого)
 Трекер:    Зареєстрований   

Завантажити / скачати українську музику



відео для новачків



 Зареєстрований:   2010-08-16 17:05
 Розмір:   324 MB 
 Оцінка музики:   10/10 (Голосів: 2)
   
Tarasyk 
Відео Гуртом - фільмокрай
Відео Гуртом - фільмокрай


З нами з: 26.08.09
Востаннє: 28.11.16
Повідомлень: 5972

2010-08-16 18:59  
Хм... aimtoknow, а чого в роздачі аж 3 .cue -файли?
aimtoknow 
VIP


З нами з: 29.11.09
Востаннє: 14.04.11
Повідомлень: 578

2010-08-16 19:12  
Tarasyk написано:
Хм... aimtoknow, а чого в роздачі аж 3 .cue -файли?

В одному вбиті назви пісень англійською:
тиць
REM GENRE "Black Metal"
REM DATE 2009
REM DISCID 510AFC07
REM COMMENT "ExactAudioCopy v0.99pb4"
PERFORMER "Live In Katowice"
TITLE "Nokturnal Mortum"
FILE "Live In Katowice - Nokturnal Mortum.ape" WAVE
TRACK 01 AUDIO
TITLE "Black Raven"
PERFORMER "Live In Katowice"
INDEX 01 00:00:00
TRACK 02 AUDIO
TITLE "Weltanschauung"
PERFORMER "Live In Katowice"
INDEX 00 06:21:11
INDEX 01 06:21:12
TRACK 03 AUDIO
TITLE "Kolyada"
PERFORMER "Live In Katowice"
INDEX 01 14:05:51
TRACK 04 AUDIO
TITLE "Valkyria"
PERFORMER "Live In Katowice"
INDEX 01 19:59:53
TRACK 05 AUDIO
TITLE "Perun's Celestial Silver"
PERFORMER "Live In Katowice"
INDEX 00 30:38:24
INDEX 01 30:38:25
TRACK 06 AUDIO
TITLE "Hailed Be The Heroes"
PERFORMER "Live In Katowice"
INDEX 00 36:50:05
INDEX 01 36:50:06
TRACK 07 AUDIO
TITLE "In The Fire Of The Wooden Churches"
PERFORMER "Live In Katowice"
INDEX 01 44:44:73
В другому кирилицею:
тиць
REM GENRE "Black Metal"
REM DATE 2009
REM DISCID 510AFC07
REM COMMENT "ExactAudioCopy v0.99pb4"
PERFORMER "Live In Katowice"
TITLE "Nokturnal Mortum"
FILE "Live In Katowice - Nokturnal Mortum.ape" WAVE
TRACK 01 AUDIO
TITLE "Черный Ворон"
PERFORMER "Live In Katowice"
INDEX 01 00:00:00
TRACK 02 AUDIO
TITLE "Мировоззрение"
PERFORMER "Live In Katowice"
INDEX 00 06:21:11
INDEX 01 06:21:12
TRACK 03 AUDIO
TITLE "Коляда"
PERFORMER "Live In Katowice"
INDEX 01 14:05:51
TRACK 04 AUDIO
TITLE "Валькирия"
PERFORMER "Live In Katowice"
INDEX 01 19:59:53
TRACK 05 AUDIO
TITLE "Небесное Серебро Перуна"
PERFORMER "Live In Katowice"
INDEX 00 30:38:24
INDEX 01 30:38:25
TRACK 06 AUDIO
TITLE "Слава Героям"
PERFORMER "Live In Katowice"
INDEX 00 36:50:05
INDEX 01 36:50:06
TRACK 07 AUDIO
TITLE "В Огне Деревянных Церквей"
PERFORMER "Live In Katowice"
INDEX 01 44:44:73
Третій за змістом бачу аналогічний першому:
тиць
REM GENRE "Black Metal"
REM DATE 2009
REM DISCID 510AFC07
REM COMMENT "ExactAudioCopy v0.99pb4"
PERFORMER "Live In Katowice"
TITLE "Nokturnal Mortum"
FILE "Live In Katowice - Nokturnal Mortum.wav" WAVE
TRACK 01 AUDIO
TITLE "Black Raven"
PERFORMER "Live In Katowice"
INDEX 01 00:00:00
TRACK 02 AUDIO
TITLE "Weltanschauung"
PERFORMER "Live In Katowice"
INDEX 00 06:21:11
INDEX 01 06:21:12
TRACK 03 AUDIO
TITLE "Kolyada"
PERFORMER "Live In Katowice"
INDEX 01 14:05:51
TRACK 04 AUDIO
TITLE "Valkyria"
PERFORMER "Live In Katowice"
INDEX 01 19:59:53
TRACK 05 AUDIO
TITLE "Perun's Celestial Silver"
PERFORMER "Live In Katowice"
INDEX 00 30:38:24
INDEX 01 30:38:25
TRACK 06 AUDIO
TITLE "Hailed Be The Heroes"
PERFORMER "Live In Katowice"
INDEX 00 36:50:05
INDEX 01 36:50:06
TRACK 07 AUDIO
TITLE "In The Fire Of The Wooden Churches"
PERFORMER "Live In Katowice"
INDEX 01 44:44:73
Інколи в подібних ріпах зустрічав файли з подвійним розширенням .wav.cue, тож подумав навіщось вони потрібні. Якщо щось зайве, то видалю і перезаллю torrent файл.

Tarasyk 
Відео Гуртом - фільмокрай
Відео Гуртом - фільмокрай


З нами з: 26.08.09
Востаннє: 28.11.16
Повідомлень: 5972

2010-08-16 19:17  
Тоді ясно, з першими двома зрозуміло, а от щодо третього навіть не знаю. Мабуть хай вже залишається, думаю він нікому не заважатиме))
Forestelf 
VIP


З нами з: 06.02.09
Востаннє: 21.01.16
Повідомлень: 894

2010-08-17 00:33  
Якщо я не помиляюся, третій cue-файл використовується при записі lossless на диск. Хоч замінити в cue-файлі розширення ape (flac) на wav, і навпаки можна руцями.
Ваш часовий пояс: GMT + 2 Години

Нова тема   Відповісти