Завантажити та скачати торренти українською


Nokturnal Mortum / Graveland / North / Темнозорь - Молот Восточной Европы (2008) [FLAC] | Pagan / Black / Folk / Viking Metal

Нові коментарі

Нова тема   Відповісти
Останній раз роздавалося Stargazer (2012-02-10)
Автор Повідомлення
aimtoknow 
VIP


З нами з: 29.11.09
Востаннє: 14.04.11
Повідомлень: 578

2010-08-15 09:50  
Nokturnal Mortum / Graveland / North / Темнозорь - Молот Восточной Европы (2008) [FLAC] | Pagan / Black / Folk / Viking Metal


Стиль: Pagan / Black / Folk / Viking Metal
Країна, місто: Україна, Харків; Польща, Вроцлав; Польща, Торунь; Росія, Обнінськ/Калуга
Сайти: Nokturnal Mortum - ; Graveland - Офіційний сайт ; North - Офіційний сайт ; Темнозорь - Офіційний сайт ;

Видавець: Stellar Winter Records
Виконавці:
Nokturnal Mortum:
Knjaz Varggoth - музика, тексти
---
Graveland:
Rob Darken - музика, тексти
---
North:
Sirkis - гітара, вокал
Marth - гітара, соло-гітара
Sebesthor - бас
Helldriver - ударні
---
Темнозорь:
Svyagir - гітара, бас, ударні, клавішні
Petr - чистий вокал
Kaldrad - жорсткий вокал
Ratibor - флейта, вокал
Пісні:
    Graveland:
    1. Кровь земле верна
    ---
    Nokturnal Mortum:
    2. Колядо
    ---
    North:
    3. Сокрушить крест вырвать хребет
    ---
    Темнозорь:
    4. Дид-Дуб-Сноп

Тривалість: 00:28:25
Мова: українська (2), російська (1,3,4)
Аудіо-кодек: APE
Бітрейт: 1018 кб/с
log
Exact Audio Copy V0.99 prebeta 5 from 4. May 2009

EAC extraction logfile from 11. March 2010, 1:15

Various artists / Молот Восточной Европы

Used drive : HL-DT-STDVD-RAM GH22NP20 Adapter: 0 ID: 0

Read mode : Secure
Utilize accurate stream : Yes
Defeat audio cache : Yes
Make use of C2 pointers : No

Read offset correction : 102
Overread into Lead-In and Lead-Out : No
Fill up missing offset samples with silence : Yes
Delete leading and trailing silent blocks : No
Null samples used in CRC calculations : Yes
Used interface : Native Win32 interface for Win NT & 2000

Used output format : User Defined Encoder
Selected bitrate : 128 kBit/s
Quality : High
Add ID3 tag : No
Command line compressor : C:\Program Files (x86)\FLAC\flac.exe
Additional command line options : ?8 ?V ?T "ARTIST=%a" ?T "TITLE=%t" ?T "ALBUM=%g" ?T "DATE=%y" ?T "TRACKNUMBER=%n" ?T "GENRE=%m" ?T "COMMENT=EAC FLAC ?8" %s

TOC of the extracted CD

Track | Start | Length | Start sector | End sector
---------------------------------------------------------
1 | 0:00.00 | 11:41.66 | 0 | 52640
2 | 11:41.66 | 5:44.38 | 52641 | 78478
3 | 17:26.29 | 5:42.56 | 78479 | 104184
4 | 23:09.10 | 5:15.73 | 104185 | 127882

Range status and errors

Selected range

Filename C:\Users\vvb05\Desktop\Аудио\Various artists - Молот Восточной Европы.wav

Peak level 100.0 %
Range quality 100.0 %
Test CRC 092D57CF
Copy CRC 092D57CF
Copy OK

No errors occurred

AccurateRip summary

Track 1 accurately ripped (confidence 2) [90FE7330]
Track 2 accurately ripped (confidence 2) [1E066A62]
Track 3 not present in database
Track 4 not present in database

2 track(s) accurately ripped
2 track(s) not present in the AccurateRip database

Some tracks could not be verified as accurate

End of status report
cue
REM DATE 2007
REM DISCID 2706A904
REM COMMENT "ExactAudioCopy v0.99pb5"
PERFORMER "Various artists"
TITLE "Молот Восточной Европы"
FILE "Various artists - Молот Восточной Европы.flac" WAVE
TRACK 01 AUDIO
TITLE "Blood Faithul to Soil"
PERFORMER "Graveland"
INDEX 01 00:00:00
TRACK 02 AUDIO
TITLE "Колядо"
PERFORMER "Nokturnal Mortum"
INDEX 01 11:41:66
TRACK 03 AUDIO
TITLE "To Break a Cross to Break a Neck"
PERFORMER "North"
INDEX 01 17:26:29
TRACK 04 AUDIO
TITLE "Диб-Дуб-Сноб"
PERFORMER "Temnozor"
INDEX 01 23:09:10
Джерело:
Також на Гуртом можна завантажити:
Додаткова інформація:
Про спліт:
У січні 2008 року підземні кузні Stellar Winter Records нарешті викинуть з пітьми на світло російську версію CD - спліту GRAVELAND/NOKTURNAL MORTUM/NORTH/ТЕМНОЗОРЬ. Цей артефакт, що об'єднав в собі 4 ведучі Pagan Metal формації Русі, Польщі і України, включає по одній тривалій композиції від кожної з 4 формацій, загальною протяжністю близько 30 хвилин. Усі пісні эксклюзивны і навряд чи будуть доступні найближчими роками на будь-якому іншому носієві окрім цього диска.
Легенда польського андерграунду GRAVELAND представлена протяжним гімном язичницьких богів війни, просоченим кров'ю, оспіваним гуркотом битв.
NOKTURNAL MORTUM дали нове життя древній перлині своєї творчості, пісні "Коляда". Одне з самих вподобаних слухачам творінь NM, перезаписано знову, прикрашено орнаментом українського поетичного колориту, збагачено партіями народних інструментів і чистого вокалу.
Одне із старих Black/Pagan формувань Польщі, NORTH, діючі з 1992-го року, на жаль, незаслужено маловідомі вітчизняному слухачеві. Передчуваючи цей свіжий вітер, чекайте швидкісний шторм могутнього Pagan Metal'а, що крушить.
Чаклунство ТЕМНОЗОРЬ оживило визнаний шедевр дебютного альбому групи, один з центральних елементів живих виступів - древній "Дид-Дуб-Сноп". Перевірена довгими роками, пісня обкована в броню якісного, потужного звуку, а голос Ратибора, знову, через десятиліття, повторюючи слова старих днів, набуває нових граней пісенного чаклунства.
Якщо Ви справді бажаєте підтримати українське - після прослуховування, якщо музика вам сподобалась, придбайте ліцензійний диск.
Підтримаймо вітчизняних виконавців!


Срібний реліз (на рейтинг впливає 50% завантаженого)
 Трекер:    Зареєстрований   

Завантажити / скачати українську музику



відео для новачків



 Зареєстрований:   2010-08-15 09:50
 Розмір:   248 MB 
 Оцінка музики:   9.2/10 (Голосів: 6)
   
Ваш часовий пояс: GMT + 2 Години

Нова тема   Відповісти