Завантажити та скачати торренти українською


Nokturnal Mortum - Мировоззрение (2005) [FLAC] | Pagan Black Metal

Нові коментарі

Нова тема   Відповісти
Останній раз роздавалося Stargazer (2012-02-10)
Автор Повідомлення
aimtoknow 
VIP


З нами з: 29.11.09
Востаннє: 14.04.11
Повідомлень: 578

2010-08-13 17:25  
Nokturnal Mortum - Мировоззрение (2005) [FLAC] | Pagan Black Metal


Стиль: Pagan Black Metal
Країна, місто: Україна, Харків
Сайти:
Видавець: ORIANA MUSIC
Виконавці:
Knjaz Varggoth - гітара, акустична гітара, вокал, дримба, кобза, перкусія
Alzeth - гітара
Vrolok - бас
Saturious - клавішні, флейта, сопілка, волинка, перкусія
Odalv - барабани

Запрошені музиканти:
Василь Хащина - чистий вокал, хор
Сергій Кондрат'єв - додаткова гітара, додатковий бас
Олексій Гребенюк - скрипка

Пісні:
    1. Путь Бессмертных
    2. Дыханье Рагнарека
    3. Звёздная Пыль
    4. Мировоззрение
    5. Печаль Родных Земель
    6. Слава Героям
    7. Танец Огня И Стали
    8. Новая Эра Мечей
    9. Бескрайние Топи
    10. Нити Судьбоносной Узлы
    11. Собирая Смерти Посев
    12. Вкус Победы
    13. Дорога Славы
    14. Bonus Track

Тривалість: 01:13:57
Мова: українська (6), російська (2,4,8,10,12), інструментальні (1,3,5,7,9,11,13,14)
Аудіо-кодек: FLAC
Бітрейт: 1001 кб/с
log
Exact Audio Copy V0.99 prebeta 5 from 4. May 2009

EAC extraction logfile from 11. March 2010, 18:51

Nokturnal Mortum / Мировоззрение

Used drive : HL-DT-STDVD-RAM GH22NP20 Adapter: 0 ID: 0

Read mode : Secure
Utilize accurate stream : Yes
Defeat audio cache : Yes
Make use of C2 pointers : No

Read offset correction : 102
Overread into Lead-In and Lead-Out : No
Fill up missing offset samples with silence : Yes
Delete leading and trailing silent blocks : No
Null samples used in CRC calculations : Yes
Used interface : Native Win32 interface for Win NT & 2000

Used output format : User Defined Encoder
Selected bitrate : 128 kBit/s
Quality : High
Add ID3 tag : No
Command line compressor : C:\Program Files (x86)\FLAC\flac.exe
Additional command line options : ?8 ?V ?T "ARTIST=%a" ?T "TITLE=%t" ?T "ALBUM=%g" ?T "DATE=%y" ?T "TRACKNUMBER=%n" ?T "GENRE=%m" ?T "COMMENT=EAC FLAC ?8" %s

TOC of the extracted CD

Track | Start | Length | Start sector | End sector
---------------------------------------------------------
1 | 0:00.00 | 2:27.40 | 0 | 11064
2 | 2:27.40 | 8:00.42 | 11065 | 47106
3 | 10:28.07 | 3:04.03 | 47107 | 60909
4 | 13:32.10 | 8:29.25 | 60910 | 99109
5 | 22:01.35 | 1:35.68 | 99110 | 106302
6 | 23:37.28 | 8:15.14 | 106303 | 143441
7 | 31:52.42 | 1:41.60 | 143442 | 151076
8 | 33:34.27 | 7:46.14 | 151077 | 186040
9 | 41:20.41 | 1:29.50 | 186041 | 192765
10 | 42:50.16 | 10:36.27 | 192766 | 240492
11 | 53:26.43 | 2:31.02 | 240493 | 251819
12 | 55:57.45 | 12:05.48 | 251820 | 306242
13 | 68:03.18 | 2:51.43 | 306243 | 319110
14 | 70:54.61 | 3:02.60 | 319111 | 332820

Range status and errors

Selected range

Filename C:\Users\vvb05\Desktop\Аудио\Nokturnal Mortum - Мировоззрение.wav

Peak level 100.0 %
Range quality 100.0 %
Test CRC A359EA8F
Copy CRC A359EA8F
Copy OK

No errors occurred

AccurateRip summary

Track 1 accurately ripped (confidence 2) [FA179174]
Track 2 accurately ripped (confidence 2) [12670FE2]
Track 3 accurately ripped (confidence 2) [7F47335F]
Track 4 accurately ripped (confidence 2) [DA13DB39]
Track 5 accurately ripped (confidence 2) [90E3BF1C]
Track 6 accurately ripped (confidence 2) [BCA17049]
Track 7 accurately ripped (confidence 2) [E3031335]
Track 8 accurately ripped (confidence 2) [F412D97E]
Track 9 accurately ripped (confidence 2) [7B72F580]
Track 10 accurately ripped (confidence 2) [11ED96DB]
Track 11 accurately ripped (confidence 2) [8652B2DD]
Track 12 accurately ripped (confidence 2) [F9EC9BAF]
Track 13 accurately ripped (confidence 2) [BC9E9671]
Track 14 accurately ripped (confidence 2) [A7A0CC84]

All tracks accurately ripped

End of status report
cue
REM GENRE "Black Metal"
REM DATE 2005
REM DISCID B911550E
REM COMMENT "ExactAudioCopy v0.99pb5"
PERFORMER "Nokturnal Mortum"
TITLE "Мировоззрение"
FILE "Nokturnal Mortum - Мировоззрение.flac" WAVE
TRACK 01 AUDIO
TITLE "Путь бессмертных"
PERFORMER "Nokturnal Mortum"
INDEX 01 00:00:00
TRACK 02 AUDIO
TITLE "Дыхание рагнарека"
PERFORMER "Nokturnal Mortum"
INDEX 01 02:27:40
TRACK 03 AUDIO
TITLE "Звездная пыль"
PERFORMER "Nokturnal Mortum"
INDEX 01 10:28:07
TRACK 04 AUDIO
TITLE "Мировоззрение"
PERFORMER "Nokturnal Mortum"
INDEX 01 13:32:10
TRACK 05 AUDIO
TITLE "Печаль родных земель"
PERFORMER "Nokturnal Mortum"
INDEX 01 22:01:35
TRACK 06 AUDIO
TITLE "Слава героям"
PERFORMER "Nokturnal Mortum"
INDEX 01 23:37:28
TRACK 07 AUDIO
TITLE "Танец огня и стали"
PERFORMER "Nokturnal Mortum"
INDEX 01 31:52:42
TRACK 08 AUDIO
TITLE "Новая эра мечей"
PERFORMER "Nokturnal Mortum"
INDEX 01 33:34:27
TRACK 09 AUDIO
TITLE "Бескрайние топи"
PERFORMER "Nokturnal Mortum"
INDEX 01 41:20:41
TRACK 10 AUDIO
TITLE "Нити судьбоносной узлы"
PERFORMER "Nokturnal Mortum"
INDEX 01 42:50:16
TRACK 11 AUDIO
TITLE "Собирая смерти посев"
PERFORMER "Nokturnal Mortum"
INDEX 01 53:26:43
TRACK 12 AUDIO
TITLE "Вкус победы"
PERFORMER "Nokturnal Mortum"
INDEX 01 55:57:45
TRACK 13 AUDIO
TITLE "Дорога славы"
PERFORMER "Nokturnal Mortum"
INDEX 01 68:03:18
TRACK 14 AUDIO
TITLE "Untitled Track"
PERFORMER "Nokturnal Mortum"
INDEX 01 70:54:61
Джерело:
Також на Гуртом можна завантажити:
Додаткова інформація:
Рецензія на альбом
Кращий альбом групи після "Lunar Poetry"!!! "Голос Сталі" хоч і перевершив цей релиз за якістю запису і технічної замудреності, але ні в яке порівняння не йде з точки зору пісень, котрі зв'язують між собою просто дивовижні ембиентні вставки (причому в англомовному варіанті вони дуже сильно програють)! "Дихання Рагнарьока" і "Нова Ера Мечів" - нестримувана лють, відчайдушна атака на брехню і лицемірство, ураганний вихор, дихання Рагнарьока, інакше і не скажеш. Кількість фольковых мотивів в аранжуваннях значно зросла з часів "Нехристі", ще не встигнувши розчинитися в наступній блюзовій сумовитості 2009 року... Метальні ж місця просто так самі по собі теж зникати нікуди не бажають. На зміну канувшим в Лєту пісочним бласт-бітам приходять громові гуркоти паганського металу в кращих традиціях "Баторієвського" "Nordland" з вкрапленнями партій автентичних народних інструментів, місцями переходячи аж в майже забійний хеві! Блиск! "Світогляд" і "Нитки Доленосної Вузли" - дуже задумливі по своїй структурі композиції, місцями практично віддають думом, а місцями просто польотом в неземних сферах, позамежних краях уявлення... і зверзаются водоспадом люті і мудрості, що знову клекоче. Від пасажів на зразок "Гілки, руки померлих" і "Лісу темного стогін", як би тупо і банально не звучало, стигне в жилах кров, прекрасне єднання музики і лірики. "Слава Героям" стоїть осібно як в плані лірики, так і музики. Пісня присвячена, якщо не помиляюся, ОУН-УПА, по музиці є українськими народними мотивами, покладеними на важкі рифі, без всяких домішок... Що ж до безумовного шедевра альбому, то це "Смак Перемоги", який я дуже барвисто встиг розписати в рецензії на однойменний ЕР. Додам лише, що в підсумковій редакції пісня отримала своє практично ідеальне втілення, кожен шматочок, кожна нота звучить просто божественно, і без того геніальний трек представлений в новій просто досконалій якості.. після нього свідомість спокійно погойдується на хвилях протяжного ембіентного аутро, помалу опам'ятавшись... Що довго говорити, 10!
Nightmare_HS
---
рецензія взята з darkside.ru /переклад з російської/
Якщо Ви справді бажаєте підтримати українське - після прослуховування, якщо музика вам сподобалась, придбайте ліцензійний диск. Підтримаймо вітчизняних виконавців!


Срібний реліз (на рейтинг впливає 50% завантаженого)
 Трекер:    Зареєстрований   

Завантажити / скачати українську музику



відео для новачків



 Зареєстрований:   2010-08-13 17:25
 Розмір:   557 MB 
 Оцінка музики:   10/10 (Голосів: 2)
   
aimtoknow 
VIP


З нами з: 29.11.09
Востаннє: 14.04.11
Повідомлень: 578

2010-08-13 17:27  
Прекрасний альбом! А "Слава Героям" - шедевр!
Слава Героям
Слава Героям

Було, на Вкраїні, ревіли гармати,
Справжні герої вміли панувати
Мечем здобували і Славу і Волю,
Тієї Слави не змити кров’ю.
Слава Героям!

Було, на Хортиці Січ будували,
Захищали Країну, за неї вмирали
На честі арійській та по вражих кістках,
Ми в Ірій славетний викладемо шлях.
Слава Героям!

Чисте серце, сповнене Арійскої крові
Хай заб’ється, та повстануть пращури-герої
Дух, що рве до бою, він навік з тобою
У твоїй крові, він в твоїй родині,
Він на Батьківщині, він живий.
Та запалає знов на рідній неньці Україні!
Меч до гори, до сонця дорога
Або загибель, або перемога
Ці два шляхи перед нами ставали
Біла Раса – то найважніша справа.
Слава Героям!

Воїни Галичини,
Караючий меч у слов’янських руках
Ви зупинились за крок до мети,
Тепер наша черга закінчити шлях.
Зрада стала вам на дорозі,
Червоні кати зруйнували наш край,
І зараз панує ворожа зараза.
Брате, міцніше зброю тримай!

Forestelf 
VIP


З нами з: 06.02.09
Востаннє: 21.01.16
Повідомлень: 894

2010-08-13 18:52  
Також пісня подобається
Тарас Шевченко


Іван Підкова

Було колись в Україні ревіли гармати
Було колись Запорожці вміли панувати
Панували добували і Славу і Волю
Минулося осталися Могили на полі

aimtoknow 
VIP


З нами з: 29.11.09
Востаннє: 14.04.11
Повідомлень: 578

2010-09-05 14:14  
Підтримай вітчизняного виконавця не лише словом:
тиць

Ваш часовий пояс: GMT + 2 Години

Нова тема   Відповісти