Завантажити та скачати торренти українською


Raventale - Mortal Aspirations (2009) [FLAC] | Black / Doom Metal

Нові коментарі

Нова тема   Відповісти
Останній раз роздавалося Forestelf (2011-03-28)
Автор Повідомлення
Forestelf 
VIP


З нами з: 06.02.09
Востаннє: 21.01.16
Повідомлень: 894

2010-08-13 09:38  
Raventale - Mortal Aspirations (2009) [FLAC] | Black / Doom Metal



Стиль: Black Doom Metal
Країна, місто: Україна, Київ
Сайти:
Видавець: BadMoodMan Music
Виконавці: Астарот – вокал і всі інструменти
Пісні:
    1. The Fall Of The Mortal Aspirations
    2. Cosmos Inside
    3. My Birds Of Misfortune
    4. A Fading Scent Of Cinnamon And Naked
    5. Watching A Luna Becomes Thy Face
    6. The Silhouette Of Despair
    7. Escape To The Stars
    8. Suicide As The Destined End
    9. A Ravens Fade

Тривалість: 00:52:35
Мова: англійська
Аудіо-кодек: FLAC
Бітрейт: 1001 кб/с
log
Exact Audio Copy V0.99 prebeta 4 from 23. January 2008

EAC extraction logfile from 29. November 2009, 12:50

Raventale / Mortal Aspirations

Used drive : ASUS DRW-1612BL Adapter: 0 ID: 0

Read mode : Secure
Utilize accurate stream : Yes
Defeat audio cache : Yes
Make use of C2 pointers : No

Read offset correction : 6
Overread into Lead-In and Lead-Out : No
Fill up missing offset samples with silence : Yes
Delete leading and trailing silent blocks : No
Null samples used in CRC calculations : Yes
Used interface : Installed external ASPI interface

Used output format : User Defined Encoder
Selected bitrate : 768 kBit/s
Quality : High
Add ID3 tag : No
Command line compressor : C:\Program Files (x86)\Exact Audio Copy\Flac\flac.exe
Additional command line options : -6 -V -T "ARTIST=%a" -T "TITLE=%t" -T "ALBUM=%g" -T "DATE=%y" -T "TRACKNUMBER=%n" -T "GENRE=%m" -T "COMMENT=%e" %s -o %d

TOC of the extracted CD

Track | Start | Length | Start sector | End sector
---------------------------------------------------------
1 | 0:00.00 | 9:23.10 | 0 | 42234
2 | 9:23.10 | 1:10.01 | 42235 | 47485
3 | 10:33.11 | 8:10.71 | 47486 | 84306
4 | 18:44.07 | 9:32.21 | 84307 | 127227
5 | 28:16.28 | 1:10.72 | 127228 | 132549
6 | 29:27.25 | 6:33.12 | 132550 | 162036
7 | 36:00.37 | 3:26.68 | 162037 | 177554
8 | 39:27.30 | 10:54.67 | 177555 | 226671
9 | 50:22.22 | 2:13.28 | 226672 | 236674

Range status and errors

Selected range

Filename E:\My Doom\Raventale - Mortal Aspirations.wav

Peak level 100.0 %
Range quality 100.0 %
Test CRC DFD1CCFF
Copy CRC DFD1CCFF
Copy OK

No errors occurred

AccurateRip summary

Track 1 not present in database
Track 2 not present in database
Track 3 not present in database
Track 4 not present in database
Track 5 not present in database
Track 6 not present in database
Track 7 not present in database
Track 8 not present in database
Track 9 not present in database

None of the tracks are present in the AccurateRip database

End of status report
cue
REM GENRE "Black/Doom Metal"
REM DATE 2009
REM DISCID 810C5309
REM COMMENT "ExactAudioCopy v0.99pb4"
PERFORMER "Raventale"
TITLE "Mortal Aspirations"
FILE "Raventale - Mortal Aspirations.flac" WAVE
TRACK 01 AUDIO
TITLE "The Fall Of The Mortal Aspirations"
PERFORMER "Raventale"
INDEX 01 00:00:00
TRACK 02 AUDIO
TITLE "Cosmos Inside"
PERFORMER "Raventale"
INDEX 01 09:23:10
TRACK 03 AUDIO
TITLE "My Birds Of Misfortune"
PERFORMER "Raventale"
INDEX 01 10:33:11
TRACK 04 AUDIO
TITLE "A Fading Scent Of Cinnamon And Naked"
PERFORMER "Raventale"
INDEX 01 18:44:07
TRACK 05 AUDIO
TITLE "Watching A Luna Becomes Thy Face"
PERFORMER "Raventale"
INDEX 01 28:16:28
TRACK 06 AUDIO
TITLE "The Silhouette Of Despair"
PERFORMER "Raventale"
INDEX 01 29:27:25
TRACK 07 AUDIO
TITLE "Escape To The Stars"
PERFORMER "Raventale"
INDEX 01 36:00:37
TRACK 08 AUDIO
TITLE "Suicide As The Destined End"
PERFORMER "Raventale"
INDEX 01 39:27:30
TRACK 09 AUDIO
TITLE "A Ravens Fade"
PERFORMER "Raventale"
INDEX 01 50:22:22
Джерело:

Якщо Ви справді бажаєте підтримати українське - після прослуховування, якщо музика вам сподобалась, придбайте ліцензійний диск. Підтримаймо вітчизняних виконавців!


Срібний реліз (на рейтинг впливає 50% завантаженого)
 Трекер:    Зареєстрований   

Завантажити / скачати українську музику



відео для новачків



 Зареєстрований:   2010-08-13 09:38
 Розмір:   403 MB 
 Оцінка музики:   10/10 (Голосів: 3)
   
Ваш часовий пояс: GMT + 2 Години

Нова тема   Відповісти