Завантажити та скачати торренти українською


Nokturnal Mortum - The Taste of Victory [EP] (2004) [FLAC] | NSBM

Нові коментарі

Нова тема   Відповісти
Останній раз роздавалося aimtoknow (2011-02-05)
Автор Повідомлення
aimtoknow 
VIP


З нами з: 29.11.09
Востаннє: 14.04.11
Повідомлень: 578

2010-08-12 17:56  
Nokturnal Mortum - The Taste of Victory [EP] (2004) [FLAC] | NSBM


Стиль: NSBM
Країна, місто: Україна, Харків
Сайти:
Видавець: ORIANA MUSIC
Виконавці:
Knjaz Varggoth - вокал, гітара, фолкові інструменти
Alzeth - гітара
Saturious - клавішні, фолкові інструменти
Vrolok - бас
Odalv - барабани

Пісні:
    1. Мировоззрение
    2. Новая Эра Мечей
    3. Вкус Победы
    4. Стальным Орлом В Златую Сваргу

Тривалість: 00:42:53
Мова: російська
Аудіо-кодек: FLAC
Бітрейт: 956 кб/с
log
Exact Audio Copy V0.99 prebeta 5 from 4. May 2009

EAC extraction logfile from 11. March 2010, 7:05

Nokturnal mortum / The taste of victory

Used drive : HL-DT-STDVD-RAM GH22NP20 Adapter: 0 ID: 0

Read mode : Secure
Utilize accurate stream : Yes
Defeat audio cache : Yes
Make use of C2 pointers : No

Read offset correction : 102
Overread into Lead-In and Lead-Out : No
Fill up missing offset samples with silence : Yes
Delete leading and trailing silent blocks : No
Null samples used in CRC calculations : Yes
Used interface : Native Win32 interface for Win NT & 2000

Used output format : User Defined Encoder
Selected bitrate : 128 kBit/s
Quality : High
Add ID3 tag : No
Command line compressor : C:\Program Files (x86)\FLAC\flac.exe
Additional command line options : ?8 ?V ?T "ARTIST=%a" ?T "TITLE=%t" ?T "ALBUM=%g" ?T "DATE=%y" ?T "TRACKNUMBER=%n" ?T "GENRE=%m" ?T "COMMENT=EAC FLAC ?8" %s

TOC of the extracted CD

Track | Start | Length | Start sector | End sector
---------------------------------------------------------
1 | 0:00.00 | 11:43.65 | 0 | 52789
2 | 11:43.65 | 8:38.23 | 52790 | 91662
3 | 20:22.13 | 7:40.31 | 91663 | 126193
4 | 28:02.44 | 14:51.22 | 126194 | 193040

Range status and errors

Selected range

Filename C:\Users\vvb05\Desktop\Аудио\Nokturnal mortum - The taste of victory.wav

Peak level 100.0 %
Range quality 100.0 %
Test CRC F5FDC085
Copy CRC F5FDC085
Copy OK

No errors occurred

AccurateRip summary

Track 1 not present in database
Track 2 not present in database
Track 3 not present in database
Track 4 not present in database

None of the tracks are present in the AccurateRip database

End of status report
cue
REM GENRE nsbm
REM DATE 2004
REM DISCID 2A0A0D04
REM COMMENT "ExactAudioCopy v0.99pb5"
PERFORMER "Nokturnal mortum"
TITLE "The taste of victory"
FILE "Nokturnal mortum - The taste of victory.flac" WAVE
TRACK 01 AUDIO
TITLE "The taste of victory"
PERFORMER "Nokturnal mortum"
FLAGS DCP
INDEX 01 00:00:00
TRACK 02 AUDIO
TITLE "Weltanschauung"
PERFORMER "Nokturnal mortum"
FLAGS DCP
INDEX 00 11:41:65
INDEX 01 11:43:65
TRACK 03 AUDIO
TITLE "The new era of swords"
PERFORMER "Nokturnal mortum"
FLAGS DCP
INDEX 00 20:20:13
INDEX 01 20:22:13
TRACK 04 AUDIO
TITLE "As the steel eagle into golden swarga"
PERFORMER "Nokturnal mortum"
FLAGS DCP
INDEX 00 28:00:44
INDEX 01 28:02:44
Джерело:
Також на Гуртом можна завантажити:
Додаткова інформація:
Рецензія на альбом
Надовго, пам'ятається мені, розпрощався я з творчістю групи тоді, аж та появи піратських мр3 в далекому 2002-2003-му, задовго до усіляких оріановских перевидань і т.д.. Слід сказати, що на цьому релізе найбільше зачепили мене останні два треки, бо "Світогляд" і "Ера Мечів" отримали гідну реалізацію лише на наступному повноформатнику. "Смак Перемоги" своєю щирістю і надривом чіпляє навіть в такій сирій версії, а багато вокальних і інструментальних місць звучать навіть краще, ніж в кінцевому варіанті! Що-небудь говорити про композиційну структуру і рифах я вважаю зайвим, після "Lunar Poetry" і "Небесного Срібла" - краще творіння групи, абсолютно позачасова, неземна музика! Болем, щирістю, почуттями просякнута кожна нота.. "Сталевим Орлом" є в чистому вигляді прогресом NM від "Нехристі" до стилю "Світогляду", мелодійні фолкові мотиви все більше тіснять блекерське довбання, особливо заголовна, післякуплетна мелодія дуже хороша. Завершується ж трек досить довгим фольклорним програшем, який не устигає набриднути навіть за такий тривалий час... відмінне завершення для ЕР, ні більше, ні менше, якраз, щоб трохи остигнути після попереднього шедевра.
Nightmare_HS
---
рецензія взята з darkside.ru /переклад з російської/
Якщо Ви справді бажаєте підтримати українське - після прослуховування, якщо музика вам сподобалась, придбайте ліцензійний диск. Підтримаймо вітчизняних виконавців!


Срібний реліз (на рейтинг впливає 50% завантаженого)
 Трекер:    Зареєстрований   

Завантажити / скачати українську музику



відео для новачків



 Зареєстрований:   2010-08-12 17:56
 Розмір:   310 MB 
 Оцінка музики:   10/10 (Голосів: 3)
   
Lev 
VIP


З нами з: 14.10.09
Востаннє: 28.11.16
Повідомлень: 1819

2010-08-13 15:40  
а от ця обкладинка вже викликає асоціації з NSBM !
aimtoknow 
VIP


З нами з: 29.11.09
Востаннє: 14.04.11
Повідомлень: 578

2010-08-13 16:04  
Lev написано:
а от ця обкладинка вже викликає асоціації з NSBM !

Ця повинна не лише викликати Happy :
тиць

Ваш часовий пояс: GMT + 2 Години

Нова тема   Відповісти