Завантажити та скачати торренти українською


Nokturnal Mortum - Нехристь (1999) (Перевидання 2004) [FLAC] | NSBM

Нові коментарі

Нова тема   Відповісти
Останній раз роздавалося aimtoknow (2011-02-05)
Автор Повідомлення
aimtoknow 
VIP


З нами з: 29.11.09
Востаннє: 14.04.11
Повідомлень: 578

2010-08-11 17:30  
Nokturnal Mortum - Нехристь (1999) (Перевидання 2004) [FLAC] | NSBM


Стиль: NSBM
Країна, місто: Україна, Харків
Сайти:
Видавець: ORIANA MUSIC
Виконавці:
Knjaz Varggoth - вокал, усі гітари, домра, дримба
Saturious - сопілка, сітра, клавішні
Munruthel - барабани, перкусія
Sataroth - клавішні
Xaarquath - бас

Пісні:
    01. The Funeral Wind Born In Oriana
    02. Night Before The Fight
    03. Черный Ворон
    04. The Call Of Aryan Spirit
    05. Дитя Болот и Полнолуния
    06. Death Damnation
    07. В Огне Деревянных церквей
    08. Jesus' Blood
    09. Нехристь: Танец Мечей
    10. Небесное Серебро Перуна
    11. Deaf Forever (Motorhead cover)

Тривалість: 01:15:55
Мова: англійська (1,4,6,8,11), російська (3,5,7,9,10)
Аудіо-кодек: FLAC
Бітрейт: 1015 кб/с
log
Exact Audio Copy V0.99 prebeta 5 from 4. May 2009

EAC extraction logfile from 11. March 2010, 0:40

Nokturnal Mortum / Нехристь

Used drive : HL-DT-STDVD-RAM GH22NP20 Adapter: 0 ID: 0

Read mode : Secure
Utilize accurate stream : Yes
Defeat audio cache : Yes
Make use of C2 pointers : No

Read offset correction : 102
Overread into Lead-In and Lead-Out : No
Fill up missing offset samples with silence : Yes
Delete leading and trailing silent blocks : No
Null samples used in CRC calculations : Yes
Used interface : Native Win32 interface for Win NT & 2000

Used output format : User Defined Encoder
Selected bitrate : 128 kBit/s
Quality : High
Add ID3 tag : No
Command line compressor : C:\Program Files (x86)\FLAC\flac.exe
Additional command line options : ?8 ?V ?T "ARTIST=%a" ?T "TITLE=%t" ?T "ALBUM=%g" ?T "DATE=%y" ?T "TRACKNUMBER=%n" ?T "GENRE=%m" ?T "COMMENT=EAC FLAC ?8" %s

TOC of the extracted CD

Track | Start | Length | Start sector | End sector
---------------------------------------------------------
1 | 0:00.00 | 6:36.13 | 0 | 29712
2 | 6:36.13 | 6:35.65 | 29713 | 59402
3 | 13:12.03 | 8:10.14 | 59403 | 96166
4 | 21:22.17 | 5:56.40 | 96167 | 122906
5 | 27:18.57 | 5:38.67 | 122907 | 148323
6 | 32:57.49 | 5:35.12 | 148324 | 173460
7 | 38:32.61 | 7:11.37 | 173461 | 205822
8 | 45:44.23 | 6:11.46 | 205823 | 233693
9 | 51:55.69 | 6:31.18 | 233694 | 263036
10 | 58:27.12 | 0:04.08 | 263037 | 263344
11 | 58:31.20 | 0:04.06 | 263345 | 263650
12 | 58:35.26 | 0:04.10 | 263651 | 263960
13 | 58:39.36 | 0:04.04 | 263961 | 264264
14 | 58:43.40 | 0:04.06 | 264265 | 264570
15 | 58:47.46 | 0:04.04 | 264571 | 264874
16 | 58:51.50 | 0:04.03 | 264875 | 265177
17 | 58:55.53 | 0:04.02 | 265178 | 265479
18 | 58:59.55 | 0:04.04 | 265480 | 265783
19 | 59:03.59 | 0:04.02 | 265784 | 266085
20 | 59:07.61 | 0:04.04 | 266086 | 266389
21 | 59:11.65 | 0:04.12 | 266390 | 266701
22 | 59:16.02 | 0:04.04 | 266702 | 267005
23 | 59:20.06 | 0:04.03 | 267006 | 267308
24 | 59:24.09 | 0:04.06 | 267309 | 267614
25 | 59:28.15 | 0:04.02 | 267615 | 267916
26 | 59:32.17 | 0:04.06 | 267917 | 268222
27 | 59:36.23 | 0:04.02 | 268223 | 268524
28 | 59:40.25 | 0:04.04 | 268525 | 268828
29 | 59:44.29 | 0:04.05 | 268829 | 269133
30 | 59:48.34 | 0:04.06 | 269134 | 269439
31 | 59:52.40 | 0:04.05 | 269440 | 269744
32 | 59:56.45 | 0:04.02 | 269745 | 270046
33 | 60:00.47 | 0:04.08 | 270047 | 270354
34 | 60:04.55 | 0:04.01 | 270355 | 270655
35 | 60:08.56 | 0:04.03 | 270656 | 270958
36 | 60:12.59 | 0:04.07 | 270959 | 271265
37 | 60:16.66 | 0:04.02 | 271266 | 271567
38 | 60:20.68 | 0:04.04 | 271568 | 271871
39 | 60:24.72 | 0:04.06 | 271872 | 272177
40 | 60:29.03 | 0:04.03 | 272178 | 272480
41 | 60:33.06 | 0:04.08 | 272481 | 272788
42 | 60:37.14 | 0:04.14 | 272789 | 273102
43 | 60:41.28 | 0:04.18 | 273103 | 273420
44 | 60:45.46 | 0:04.10 | 273421 | 273730
45 | 60:49.56 | 0:04.08 | 273731 | 274038
46 | 60:53.64 | 0:04.05 | 274039 | 274343
47 | 60:57.69 | 0:04.01 | 274344 | 274644
48 | 61:01.70 | 0:04.06 | 274645 | 274950
49 | 61:06.01 | 0:04.04 | 274951 | 275254
50 | 61:10.05 | 0:04.02 | 275255 | 275556
51 | 61:14.07 | 0:04.02 | 275557 | 275858
52 | 61:18.09 | 0:04.01 | 275859 | 276159
53 | 61:22.10 | 0:04.06 | 276160 | 276465
54 | 61:26.16 | 0:04.06 | 276466 | 276771
55 | 61:30.22 | 0:04.12 | 276772 | 277083
56 | 61:34.34 | 0:04.14 | 277084 | 277397
57 | 61:38.48 | 0:04.08 | 277398 | 277705
58 | 61:42.56 | 0:04.32 | 277706 | 278037
59 | 61:47.13 | 0:04.06 | 278038 | 278343
60 | 61:51.19 | 0:04.12 | 278344 | 278655
61 | 61:55.31 | 0:04.08 | 278656 | 278963
62 | 61:59.39 | 0:04.10 | 278964 | 279273
63 | 62:03.49 | 0:04.08 | 279274 | 279581
64 | 62:07.57 | 0:04.12 | 279582 | 279893
65 | 62:11.69 | 0:04.08 | 279894 | 280201
66 | 62:16.02 | 0:04.06 | 280202 | 280507
67 | 62:20.08 | 0:04.09 | 280508 | 280816
68 | 62:24.17 | 0:04.09 | 280817 | 281125
69 | 62:28.26 | 0:04.08 | 281126 | 281433
70 | 62:32.34 | 0:04.01 | 281434 | 281734
71 | 62:36.35 | 0:04.02 | 281735 | 282036
72 | 62:40.37 | 0:04.02 | 282037 | 282338
73 | 62:44.39 | 0:04.04 | 282339 | 282642
74 | 62:48.43 | 0:04.05 | 282643 | 282947
75 | 62:52.48 | 0:04.02 | 282948 | 283249
76 | 62:56.50 | 0:04.04 | 283250 | 283553
77 | 63:00.54 | 0:04.01 | 283554 | 283854
78 | 63:04.55 | 0:04.09 | 283855 | 284163
79 | 63:08.64 | 0:04.04 | 284164 | 284467
80 | 63:12.68 | 0:04.11 | 284468 | 284778
81 | 63:17.04 | 0:04.12 | 284779 | 285090
82 | 63:21.16 | 0:04.02 | 285091 | 285392
83 | 63:25.18 | 0:04.05 | 285393 | 285697
84 | 63:29.23 | 0:04.14 | 285698 | 286011
85 | 63:33.37 | 0:04.01 | 286012 | 286312
86 | 63:37.38 | 0:04.01 | 286313 | 286613
87 | 63:41.39 | 8:19.00 | 286614 | 324038
88 | 72:00.39 | 3:54.41 | 324039 | 341629

Range status and errors

Selected range

Filename C:\Users\vvb05\Desktop\Аудио\Nokturnal Mortum - Нехристь.wav

Peak level 100.0 %
Range quality 100.0 %
Test CRC A5332B8C
Copy CRC A5332B8C
Copy OK

No errors occurred

AccurateRip summary

Track 1 accurately ripped (confidence 4) [0F89BB7D]
Track 2 accurately ripped (confidence 4) [F3862930]
Track 3 accurately ripped (confidence 4) [32C578F9]
Track 4 accurately ripped (confidence 4) [AF6A4BEC]
Track 5 accurately ripped (confidence 4) [4E63BEC3]
Track 6 accurately ripped (confidence 4) [C8E4DE16]
Track 7 accurately ripped (confidence 4) [3F6E7DEA]
Track 8 accurately ripped (confidence 4) [BAC90A8E]
Track 9 accurately ripped (confidence 4) [3AA44D8F]
Track 10 not present in database
Track 11 not present in database
Track 12 not present in database
Track 13 not present in database
Track 14 not present in database
Track 15 not present in database
Track 16 not present in database
Track 17 not present in database
Track 18 not present in database
Track 19 not present in database
Track 20 not present in database
Track 21 not present in database
Track 22 not present in database
Track 23 not present in database
Track 24 not present in database
Track 25 not present in database
Track 26 not present in database
Track 27 not present in database
Track 28 not present in database
Track 29 not present in database
Track 30 not present in database
Track 31 not present in database
Track 32 not present in database
Track 33 not present in database
Track 34 not present in database
Track 35 not present in database
Track 36 not present in database
Track 37 not present in database
Track 38 not present in database
Track 39 not present in database
Track 40 not present in database
Track 41 not present in database
Track 42 not present in database
Track 43 not present in database
Track 44 not present in database
Track 45 not present in database
Track 46 not present in database
Track 47 not present in database
Track 48 not present in database
Track 49 not present in database
Track 50 not present in database
Track 51 not present in database
Track 52 not present in database
Track 53 not present in database
Track 54 not present in database
Track 55 not present in database
Track 56 not present in database
Track 57 not present in database
Track 58 not present in database
Track 59 not present in database
Track 60 not present in database
Track 61 not present in database
Track 62 not present in database
Track 63 not present in database
Track 64 not present in database
Track 65 not present in database
Track 66 not present in database
Track 67 not present in database
Track 68 not present in database
Track 69 not present in database
Track 70 not present in database
Track 71 not present in database
Track 72 not present in database
Track 73 not present in database
Track 74 not present in database
Track 75 not present in database
Track 76 not present in database
Track 77 not present in database
Track 78 not present in database
Track 79 not present in database
Track 80 not present in database
Track 81 not present in database
Track 82 not present in database
Track 83 not present in database
Track 84 not present in database
Track 85 not present in database
Track 86 not present in database
Track 87 accurately ripped (confidence 4) [B6B9B621]
Track 88 accurately ripped (confidence 4) [A6DB0517]

11 track(s) accurately ripped
77 track(s) not present in the AccurateRip database

Some tracks could not be verified as accurate

End of status report
cue
REM GENRE "Black Metal"
REM DATE 1999
REM DISCID 1811CB58
REM COMMENT "ExactAudioCopy v0.99pb5"
PERFORMER "Nokturnal Mortum"
TITLE "Нехристь"
FILE "Nokturnal Mortum - Нехристь.flac" WAVE
TRACK 01 AUDIO
TITLE "The Funeral Wind Born In Oriana"
PERFORMER "Nokturnal Mortum"
FLAGS DCP
INDEX 01 00:00:00
TRACK 02 AUDIO
TITLE "Night Before The Fight"
PERFORMER "Nokturnal Mortum"
FLAGS DCP
INDEX 01 06:36:13
TRACK 03 AUDIO
TITLE "Черный Ворон"
PERFORMER "Nokturnal Mortum"
FLAGS DCP
INDEX 01 13:12:03
TRACK 04 AUDIO
TITLE "The Call Of Aryan Spirit"
PERFORMER "Nokturnal Mortum"
FLAGS DCP
INDEX 01 21:22:17
TRACK 05 AUDIO
TITLE "Дитя Болот и Полнолуния"
PERFORMER "Nokturnal Mortum"
FLAGS DCP
INDEX 01 27:18:57
TRACK 06 AUDIO
TITLE "Death Damnation"
PERFORMER "Nokturnal Mortum"
FLAGS DCP
INDEX 01 32:57:49
TRACK 07 AUDIO
TITLE "В Огне Деревянных церквей"
PERFORMER "Nokturnal Mortum"
FLAGS DCP
INDEX 01 38:32:61
TRACK 08 AUDIO
TITLE "jesus' blood"
PERFORMER "Nokturnal Mortum"
FLAGS DCP
INDEX 01 45:44:23
TRACK 09 AUDIO
TITLE "Нехристь: Танец Мечей"
PERFORMER "Nokturnal Mortum"
FLAGS DCP
INDEX 01 51:55:69
TRACK 10 AUDIO
TITLE " "
PERFORMER "Nokturnal Mortum"
FLAGS DCP
INDEX 01 58:27:12
TRACK 11 AUDIO
TITLE " "
PERFORMER "Nokturnal Mortum"
FLAGS DCP
INDEX 01 58:31:20
TRACK 12 AUDIO
TITLE " "
PERFORMER "Nokturnal Mortum"
FLAGS DCP
INDEX 01 58:35:26
TRACK 13 AUDIO
TITLE " "
PERFORMER "Nokturnal Mortum"
FLAGS DCP
INDEX 01 58:39:36
TRACK 14 AUDIO
TITLE " "
PERFORMER "Nokturnal Mortum"
FLAGS DCP
INDEX 01 58:43:40
TRACK 15 AUDIO
TITLE " "
PERFORMER "Nokturnal Mortum"
FLAGS DCP
INDEX 01 58:47:46
TRACK 16 AUDIO
TITLE " "
PERFORMER "Nokturnal Mortum"
FLAGS DCP
INDEX 01 58:51:50
TRACK 17 AUDIO
TITLE " "
PERFORMER "Nokturnal Mortum"
FLAGS DCP
INDEX 01 58:55:53
TRACK 18 AUDIO
TITLE " "
PERFORMER "Nokturnal Mortum"
FLAGS DCP
INDEX 01 58:59:55
TRACK 19 AUDIO
TITLE " "
PERFORMER "Nokturnal Mortum"
FLAGS DCP
INDEX 01 59:03:59
TRACK 20 AUDIO
TITLE " "
PERFORMER "Nokturnal Mortum"
FLAGS DCP
INDEX 01 59:07:61
TRACK 21 AUDIO
TITLE " "
PERFORMER "Nokturnal Mortum"
FLAGS DCP
INDEX 01 59:11:65
TRACK 22 AUDIO
TITLE " "
PERFORMER "Nokturnal Mortum"
FLAGS DCP
INDEX 01 59:16:02
TRACK 23 AUDIO
TITLE " "
PERFORMER "Nokturnal Mortum"
FLAGS DCP
INDEX 01 59:20:06
TRACK 24 AUDIO
TITLE " "
PERFORMER "Nokturnal Mortum"
FLAGS DCP
INDEX 01 59:24:09
TRACK 25 AUDIO
TITLE " "
PERFORMER "Nokturnal Mortum"
FLAGS DCP
INDEX 01 59:28:15
TRACK 26 AUDIO
TITLE " "
PERFORMER "Nokturnal Mortum"
FLAGS DCP
INDEX 01 59:32:17
TRACK 27 AUDIO
TITLE " "
PERFORMER "Nokturnal Mortum"
FLAGS DCP
INDEX 01 59:36:23
TRACK 28 AUDIO
TITLE " "
PERFORMER "Nokturnal Mortum"
FLAGS DCP
INDEX 01 59:40:25
TRACK 29 AUDIO
TITLE " "
PERFORMER "Nokturnal Mortum"
FLAGS DCP
INDEX 01 59:44:29
TRACK 30 AUDIO
TITLE " "
PERFORMER "Nokturnal Mortum"
FLAGS DCP
INDEX 01 59:48:34
TRACK 31 AUDIO
TITLE " "
PERFORMER "Nokturnal Mortum"
FLAGS DCP
INDEX 01 59:52:40
TRACK 32 AUDIO
TITLE " "
PERFORMER "Nokturnal Mortum"
FLAGS DCP
INDEX 01 59:56:45
TRACK 33 AUDIO
TITLE " "
PERFORMER "Nokturnal Mortum"
FLAGS DCP
INDEX 01 60:00:47
TRACK 34 AUDIO
TITLE " "
PERFORMER "Nokturnal Mortum"
FLAGS DCP
INDEX 01 60:04:55
TRACK 35 AUDIO
TITLE " "
PERFORMER "Nokturnal Mortum"
FLAGS DCP
INDEX 01 60:08:56
TRACK 36 AUDIO
TITLE " "
PERFORMER "Nokturnal Mortum"
FLAGS DCP
INDEX 01 60:12:59
TRACK 37 AUDIO
TITLE " "
PERFORMER "Nokturnal Mortum"
FLAGS DCP
INDEX 01 60:16:66
TRACK 38 AUDIO
TITLE " "
PERFORMER "Nokturnal Mortum"
FLAGS DCP
INDEX 01 60:20:68
TRACK 39 AUDIO
TITLE " "
PERFORMER "Nokturnal Mortum"
FLAGS DCP
INDEX 01 60:24:72
TRACK 40 AUDIO
TITLE " "
PERFORMER "Nokturnal Mortum"
FLAGS DCP
INDEX 01 60:29:03
TRACK 41 AUDIO
TITLE " "
PERFORMER "Nokturnal Mortum"
FLAGS DCP
INDEX 01 60:33:06
TRACK 42 AUDIO
TITLE " "
PERFORMER "Nokturnal Mortum"
FLAGS DCP
INDEX 01 60:37:14
TRACK 43 AUDIO
TITLE " "
PERFORMER "Nokturnal Mortum"
FLAGS DCP
INDEX 01 60:41:28
TRACK 44 AUDIO
TITLE " "
PERFORMER "Nokturnal Mortum"
FLAGS DCP
INDEX 01 60:45:46
TRACK 45 AUDIO
TITLE " "
PERFORMER "Nokturnal Mortum"
FLAGS DCP
INDEX 01 60:49:56
TRACK 46 AUDIO
TITLE " "
PERFORMER "Nokturnal Mortum"
FLAGS DCP
INDEX 01 60:53:64
TRACK 47 AUDIO
TITLE " "
PERFORMER "Nokturnal Mortum"
FLAGS DCP
INDEX 01 60:57:69
TRACK 48 AUDIO
TITLE " "
PERFORMER "Nokturnal Mortum"
FLAGS DCP
INDEX 01 61:01:70
TRACK 49 AUDIO
TITLE " "
PERFORMER "Nokturnal Mortum"
FLAGS DCP
INDEX 01 61:06:01
TRACK 50 AUDIO
TITLE " "
PERFORMER "Nokturnal Mortum"
FLAGS DCP
INDEX 01 61:10:05
TRACK 51 AUDIO
TITLE " "
PERFORMER "Nokturnal Mortum"
FLAGS DCP
INDEX 01 61:14:07
TRACK 52 AUDIO
TITLE " "
PERFORMER "Nokturnal Mortum"
FLAGS DCP
INDEX 01 61:18:09
TRACK 53 AUDIO
TITLE " "
PERFORMER "Nokturnal Mortum"
FLAGS DCP
INDEX 01 61:22:10
TRACK 54 AUDIO
TITLE " "
PERFORMER "Nokturnal Mortum"
FLAGS DCP
INDEX 01 61:26:16
TRACK 55 AUDIO
TITLE " "
PERFORMER "Nokturnal Mortum"
FLAGS DCP
INDEX 01 61:30:22
TRACK 56 AUDIO
TITLE " "
PERFORMER "Nokturnal Mortum"
FLAGS DCP
INDEX 01 61:34:34
TRACK 57 AUDIO
TITLE " "
PERFORMER "Nokturnal Mortum"
FLAGS DCP
INDEX 01 61:38:48
TRACK 58 AUDIO
TITLE " "
PERFORMER "Nokturnal Mortum"
FLAGS DCP
INDEX 01 61:42:56
TRACK 59 AUDIO
TITLE " "
PERFORMER "Nokturnal Mortum"
FLAGS DCP
INDEX 01 61:47:13
TRACK 60 AUDIO
TITLE " "
PERFORMER "Nokturnal Mortum"
FLAGS DCP
INDEX 01 61:51:19
TRACK 61 AUDIO
TITLE " "
PERFORMER "Nokturnal Mortum"
FLAGS DCP
INDEX 01 61:55:31
TRACK 62 AUDIO
TITLE " "
PERFORMER "Nokturnal Mortum"
FLAGS DCP
INDEX 01 61:59:39
TRACK 63 AUDIO
TITLE " "
PERFORMER "Nokturnal Mortum"
FLAGS DCP
INDEX 01 62:03:49
TRACK 64 AUDIO
TITLE " "
PERFORMER "Nokturnal Mortum"
FLAGS DCP
INDEX 01 62:07:57
TRACK 65 AUDIO
TITLE " "
PERFORMER "Nokturnal Mortum"
FLAGS DCP
INDEX 01 62:11:69
TRACK 66 AUDIO
TITLE " "
PERFORMER "Nokturnal Mortum"
FLAGS DCP
INDEX 01 62:16:02
TRACK 67 AUDIO
TITLE " "
PERFORMER "Nokturnal Mortum"
FLAGS DCP
INDEX 01 62:20:08
TRACK 68 AUDIO
TITLE " "
PERFORMER "Nokturnal Mortum"
FLAGS DCP
INDEX 01 62:24:17
TRACK 69 AUDIO
TITLE " "
PERFORMER "Nokturnal Mortum"
FLAGS DCP
INDEX 01 62:28:26
TRACK 70 AUDIO
TITLE " "
PERFORMER "Nokturnal Mortum"
FLAGS DCP
INDEX 01 62:32:34
TRACK 71 AUDIO
TITLE " "
PERFORMER "Nokturnal Mortum"
FLAGS DCP
INDEX 01 62:36:35
TRACK 72 AUDIO
TITLE " "
PERFORMER "Nokturnal Mortum"
FLAGS DCP
INDEX 01 62:40:37
TRACK 73 AUDIO
TITLE " "
PERFORMER "Nokturnal Mortum"
FLAGS DCP
INDEX 01 62:44:39
TRACK 74 AUDIO
TITLE " "
PERFORMER "Nokturnal Mortum"
FLAGS DCP
INDEX 01 62:48:43
TRACK 75 AUDIO
TITLE " "
PERFORMER "Nokturnal Mortum"
FLAGS DCP
INDEX 01 62:52:48
TRACK 76 AUDIO
TITLE " "
PERFORMER "Nokturnal Mortum"
FLAGS DCP
INDEX 01 62:56:50
TRACK 77 AUDIO
TITLE " "
PERFORMER "Nokturnal Mortum"
FLAGS DCP
INDEX 01 63:00:54
TRACK 78 AUDIO
TITLE " "
PERFORMER "Nokturnal Mortum"
FLAGS DCP
INDEX 01 63:04:55
TRACK 79 AUDIO
TITLE " "
PERFORMER "Nokturnal Mortum"
FLAGS DCP
INDEX 01 63:08:64
TRACK 80 AUDIO
TITLE " "
PERFORMER "Nokturnal Mortum"
FLAGS DCP
INDEX 01 63:12:68
TRACK 81 AUDIO
TITLE " "
PERFORMER "Nokturnal Mortum"
FLAGS DCP
INDEX 01 63:17:04
TRACK 82 AUDIO
TITLE " "
PERFORMER "Nokturnal Mortum"
FLAGS DCP
INDEX 01 63:21:16
TRACK 83 AUDIO
TITLE " "
PERFORMER "Nokturnal Mortum"
FLAGS DCP
INDEX 01 63:25:18
TRACK 84 AUDIO
TITLE " "
PERFORMER "Nokturnal Mortum"
FLAGS DCP
INDEX 01 63:29:23
TRACK 85 AUDIO
TITLE " "
PERFORMER "Nokturnal Mortum"
FLAGS DCP
INDEX 01 63:33:37
TRACK 86 AUDIO
TITLE " "
PERFORMER "Nokturnal Mortum"
FLAGS DCP
INDEX 01 63:37:38
TRACK 87 AUDIO
TITLE "Небесное Серебро Перуна"
PERFORMER "Nokturnal Mortum"
FLAGS DCP
INDEX 01 63:41:39
TRACK 88 AUDIO
TITLE "Deaf Forever"
PERFORMER "Nokturnal Mortum"
FLAGS DCP
INDEX 01 72:00:39
Джерело:
Також на Гуртом можна завантажити:
Додаткова інформація:
Рецензія на альбом
Після "Goat Horns", минувши "Ворота", наступним я почув якраз цей альбом, причому був відразу ж уражений зміною курсу колективу, який, виявляється, був розпочатий ще на його попереднику... Що можу сказати, грубий сирий блек з фольклорними вставками, в кращих традиціях раннього Graveland, правда, з більше вигостреною і швидкісною ритм-секцією, але воно і зрозуміло, 99-й рік був тоді на дворі, як-не-як. Особливо до душі припали "Чорний Ворон", "У Вогні Християнських церков" і "Нехристь", причому на цьому альбомі харків'яни беруть далеко не своєю аранжовальною замороченістю, як на "Lunar Poetry", а люттю і надривом. Від цих простих, але грубих і злісних рифів і несамовитих криків Варггота про жИдів і грьобаних християн неілюзорно кидає то в жар, то в тремтіння, а після закінчення прослуховування вимагається деякий час, щоб прийти в себе. Непідробна чесність і щирість червоною ниткою проходять через усе це творіння... Англомовні треки на цьому являють собою мішанину з рифів і фолькових вставок, хоча я б виділив 1-у і 4-у, що досить чіпляють композиції, особливо відьомські танці у кінці першого трека, чудово... Є на альбомі і дуже невиразні місця, такі як "Jesus' Blood" і "Дитя Боліт і Повного Місяця". Остання по відчуттях є нісенітним набором різних рифів, які просто не підійшли до інших пісень, втім, "зловісна" вставочка з ухаючими совами і тужливими клавішними переходами дуже доставляє. "The Night before the Fight" я б назвав би деякою оглядовою темою альбому, в ній, за великим рахунком, так само неміряно намішане різних рифів, які пізніше зустрічаються то там, то тут на альбомі, але слухаються вони набагато ефектніше, ніж на "Дитя", особливо, кровожерно-варварський ритуальний забій в середині і у кінці. В цілому, я не порівнюватиму цей альбом з "Lunar Poetry" і "Horns", оскільки по суті, починаючи з "Воріт", NM досить сильно поміняли свій стиль. А для нового стилю я оцінюю альбом на 8!
Nightmare_HS
---
рецензія взята з darkside.ru /переклад з російської/
Якщо Ви справді бажаєте підтримати українське - після прослуховування, якщо музика вам сподобалась, придбайте ліцензійний диск. Підтримаймо вітчизняних виконавців!


Срібний реліз (на рейтинг впливає 50% завантаженого)
 Трекер:    Зареєстрований   

Завантажити / скачати українську музику



відео для новачків



 Зареєстрований:   2010-08-11 17:30
 Розмір:   577 MB 
 Оцінка музики:   10/10 (Голосів: 2)
   
jinotot 
Почесний оцифрувальник літератури


З нами з: 28.01.09
Востаннє: 04.12.16
Повідомлень: 3235

2010-08-11 18:16  
Я, звісно, не фахівець, але лоґ- і куе-файли якісь дивні... Чи таке буває?
aimtoknow 
VIP


З нами з: 29.11.09
Востаннє: 14.04.11
Повідомлень: 578

2010-08-11 18:25  
jinotot написано:
Я, звісно, не фахівець, але лоґ- і куе-файли якісь дивні... Чи таке буває?

Інформація з metal-archives.com: "CD version contains 88 tracks - the first 9 tracks are followed by 78 tracks of nature sounds. Perun's Celestial Silver is track 88, which originally appeared on the "Lunar Poetry" demo. The release length is 1:11:50 with the additional nature sounds."
А якщо коротко, то там нарізка з кількасекундних треків. Навіщо Гапон такого наробив, лише йому відомо Happy .

Lev 
VIP


З нами з: 14.10.09
Востаннє: 09.12.16
Повідомлень: 1819

2010-08-11 18:27  
а де тут у цьому альбомі НС ? Happy
Паган блек - є.

aimtoknow 
VIP


З нами з: 29.11.09
Востаннє: 14.04.11
Повідомлень: 578

2010-08-11 20:12  
Lev написано:

а де тут у цьому альбомі НС ?
Паган блек - є.

Зараз я зайнятий трохи іншим (в цьому замішана жіноча половина людства Happy), тож спробую обгрунтувати причислення цього альбому до НСБМ трохи згодом Happy .

aimtoknow 
VIP


З нами з: 29.11.09
Востаннє: 14.04.11
Повідомлень: 578

2010-08-12 10:28  
Lev
Я в стилях і підстилях не великий спец, але в певній мірі визначити в якому напрямку грає гурт взмозі. В даному випадку вважаю, що NM грають NSBM.
Спробую обгрунтувати:
Що таке NSBM:
Націонал-соціалістичний блек-метал
Націонал-соціалістичний блек-метал (з англ. National Socialist Black Metal) чи НСБМ (з англ. NSBM) — напрям блек-металу, що орієнтується на нацистську тематику текстів, атрибутику оформлення альбомів та логотипів гуртів.
Як окремий стиль NSBM сформувався у 1997 р. коли радикально налаштована блек-металева молодь не змогла більше терпіти загнивання блек металевої сцени, представники якої мали відверті сатанинські та мізантропічні погляди, й вирішило створити свою праву альтернативу, в основу якої були покладені більш радикальні ідеї, в основному націонал-соціалістичні.
Основоположником даного стилю вважається Варг Вікернес — голова та єдиний учасник норвезького блек-металевого гурту Burzum. Його про язичницькі та антихристиянські погляди лягли в основу ідеології даного стилю.
NSBM немає чітко визначених музичних концепцій. Тут можна знайти такі теми, як war metal, традиційний сирий (raw) або технічний блек, Oi!, R.A.C., вікінг метал, симфонічний блек метал, ембіент. Важливу роль тут відіграє лірика, проте музика також не відходить на другий план.
Відношення гуртів до даного жанру визначається текстами, які ідеологічно орієнтовані на расизм, нацизм, антисемітизм. Більшість виконавців об'єднують ці поняття із язичництвом, що значно зближує NSBM із паган-металом, але є гурти, що поєднують їх із True (сатанинською) тематикою.
У середині 90-х NSBM групи об'єднались у організацію The Pagan Front, створену у Vinland (USA), з метою обєднання правих блекових груп. Виступає ця організація за такі принципи, як відмова від комерції, відродження древніх європейських язичницьких традицій, відмова від християнської релігії, пропагування націонал-соціалізму та расизму.
---
Інформація взята з http://uk.wikipedia.org
Тепер деякі тексти пісень з цього альбому:
Черный Ворон
3. Черный Ворон

[Music: Knjaz Varggoth / Lyrics: Knjaz Varggoth]

Кто-то вознес Богиню Луну,
Лес тихо шепчет, все умолкает,
Черный Ворон приносит Тьму,
Искры Огня умирают.
Боги - Отцы Бореальных Земель
Главы склонили в Великой Печали.
Hавеки остыли недра Земли
Стужа Огонь убивает.
В ножнах ржавеют Стальные Клинки
Их правдивая жизнь - это Бранное Поле.
христианской ногой растоптана Русь
Славянскую Волю сменили неволей.
Сквозь Волчий Вой - Арийская Кровь
И Воин бесстрашный в века улетает,
Hа крылатом коне, грива в огне,
Землю Матушку покидает
христианский пароль - жидовская кровь,
Что кровь пролила на лучи Коловрата.
Меч в руке, кишки на клинке -
Такова должна быть Расплата!
Расплата за кровь наших Отцов,
За боль Матерей Расплата,
За лживость речей, за постройку церквей
жидовское племя должно быть распято!
Славянская Честь, Гордость и Месть
Только Война дарует Победу!
Hа христианских костях Богохульный очаг
Тот, что вершит над врагами Вендетту!
Так пусть же откованы будут Мечи!
Пусть Щиты очищает Ветер от пыли!
Hад Стягами Hашими Солнце взойдет,
За Солнцем Луна придаст Hам Силы!
Славянская Гордость! Славянская Честь!
Славянская Мудрость! Славянская Месть!
И в корнях деревьев, и в сети ветвей,
Божественный Дар - Hашей Силы ручей!
Черный Ворон, Чернее, чем Hочь
Ты лети над Землею Славянской!
Где могилы великих Воев - Отцов!
Павших когда-то от рук христианских!
Собери воедино всех Сыновей,
Собери и поведай им песню Мою.
О том, как распятый, дохлый еврей
Топчет бесстыдно Землю Мою и Твою!
В Огне Деревянных церквей
7. ...В Огне Деревянных церквей

[Music: Knjaz Varggoth / Lyrics: Knjaz Varggoth]

Закат над Славянской Землей,
ветер-мор с юга идет,
Hе с мечем и копьем,
А с крестом и кадилом бредет.
Что несет с крестом чернец?
Мир и Радость иль смерть роковую?
Много лет строил козни подлец
Как сгубить нашу Честь удалую.
И не просто сгубить, а на веки скрутить
Руки, что держат Мечи исправно,
Терном колючим Свободу убить,
Богов Отцов на жида подменить.
жидовскому племени не дали земли,
Взять ее сами они не смогли,
В их руках Сила, видать, не жила,
хитрость и подлость лишили Ума.
В дереве скрыта Вечная Мудрость,
В бурных потоках упрятана Жизнь,
Где-то в дали, виднеется Правда,
Которую прячет распятый жид.
лживые речи глаголишь чернец,
Hам твои церкви нужны для Огня,
Иди расскажи стаду овец
О том, как поможет нам вера твоя.
Прошли времена, и Перун-Златоус
Ушел по Днепру, покинув Hарод.
христианство пришло на Великую Русь,
И болью в Сердцах колокол бьет,
Великий Славен!
Воспрянь из оков!
Твой Варварский Меч
Покарает врагов.
И встанет Солнце над Землей,
Плач Матерей уйдет в былое,
Горят кресты и купола церквей,
Hам надо быть всегда собою!
Hехристь: Танец Мечей
9. Hехристь: Танец Мечей

[Music: Knjaz Varggoth / Lyrics: Knjaz Varggoth]

Пусть горит!
Пламя в Hочи, что сеет свет.
ложь церквей,
Лишь только Пепел, в Огонь завет.
Я библию рву, Я Плевал на закон.
Пусть сгниет лживый ветхий трон!
Да, Чистоте Арийской Крови!
Я есть Закон, Я Хозяин Земли!
Огнем - Я выжгу миру глаза,
Мечем - Правда вершится Моя.
В Огонь лживость слов, равенство, жалость.
Только Огню неподвластна Усталость.
Будучи Сыном Великой Расы
Я иду в Бой резать рясы.
Вырвать сердца христианским псам
Пусть будет Сила дарована Hам!
Могильный Холод, Похоронный Туман.
Во веки веков,
Hе прощу я христианский обман.
Будь во Мне Сила Земли,
Чистота Воды и Стойкость Горы,
Скорость Стрелы, Жар Огня.
Всегда будь со Мной Доблесть Моя!
Смерти Лик.
Вороний Крик.
христос - пес,
жид поганый, безродная тварь.
Силой Славянской
веру твою превращаю в Гарь!
Лукаво cмеется Луна,
Солнце лишилось Дня.
Мой Меч в крови,
И нет дороги назад.
Война Священна!
мир, ты не увидишь закат!
Танец Мечей, Ветра Стон.
Я принес жертву Войне.
Пусть брызжет кровью врагов
Злость, что скопилась во Мне!
Пусть горит ложь церквей!
---
Інформація взята з http://www.darklyrics.com/lyrics/nokturnalmortum/h.html#3
Ну і символіка, використана на цьому альбомі, теж про щось каже.

Lev 
VIP


З нами з: 14.10.09
Востаннє: 09.12.16
Повідомлень: 1819

2010-08-13 15:00  
aimtoknow

Тексти справді багато чого прояснюють, але саме по собі антихристиянство не = націонал-соціалізму.
Тут маємо справу з войовничим паган-блеком, і за бажанням протистояти християнству та закликами до війни дуже мало лишається місця для власне звеличення нації.

Звісно, багато груп розвиваються в подібному руслі, взяти хоча б цьогорічний альбом Nitberg, і на це також є свої причини, але мене завжди усміхає те, скільки вони уваги приділяють тому, що зневажають.
Це геть ірраціонально, бо націонал-соціалізм - позитивна політична доктрина і світогляд, які передбачають наявність у їхніх адептів бадьорого, конструктивного і сильного духу.
Ну, тобто це різниця між скаженою люттю, яка засліплює (як кожен афект) і бойовою злістю, яка дає твердість. Вже не кажучи про те, що у 30-х роках в Німеччині блек, навіть якби й міг виникнути, то не прижився б, але то інша розмова.

Крім того, тут йдеться про якусь окрему "слов'янську" гордість та честь - сам по собі термін дуже умовний. Є раси, і є нації, а шо таке "слов'яни" навіть фахові історики одностайно не скажуть.

Додано через 6 хвилин 20 секунд:

aimtoknow

вже не кажучи про те, що запозичений у тру-блекерів імідж, всі ці корпспейнти та шиповані предмети одягу, виглядають як намірне естетство в констексті НС - такий прикид ніколи не викликав позитивної реакції як в мене, так і в інших націонал-соціалістів, яких я знаю, адже НС - ідеологія, що вимагає аскетизму, стриманості зокрема і в зовнішньому вигляді.

як то кажуть, чим ближче до фронту, тим простіша форма у вояків.

хоча Nokturnal Mortum загалом поважаю - дуже працьовита команда.

aimtoknow 
VIP


З нами з: 29.11.09
Востаннє: 14.04.11
Повідомлень: 578

2010-08-19 14:37  
Lev
Ну так стиль же вказаний як НСБМ, а не НС.
Щодо пагану, то у творчості Nokturnal Mortum він був присутній завжди. Але в кількох альбомах (в даному особливо) НС перекрило усе інше. Погоджуюся у тому, що за антиєврейськими (антихристиянськими) гаслами не вистачило місця для звеличення свого, рідного. І це "-".
---
Стосовно амуніції:
Ну все ж таки NM грають Black, хоч і не чистої води. Тож не бачу нічого дивного у їхньому зовнішньому вигляді. Тим більш, що останнім часом шипування у них відсутнє.

Lev 
VIP


З нами з: 14.10.09
Востаннє: 09.12.16
Повідомлень: 1819

2010-08-21 20:27  
aimtoknow

ок, в нас просто дещо відмінні погляди на стиль Happy

aimtoknow 
VIP


З нами з: 29.11.09
Востаннє: 14.04.11
Повідомлень: 578

2010-08-21 20:39  
Lev
Тут, думаю, причина інша. Гурт не вкладається в межі одного стилю. І тому точно інтерпретувати його не просто. А те що ми дещо по різному сприймаємо музику гурту, то нічого дивного в цьому не бачу Happy.

Додано через 4 хвилини 39 секунд:

До речі, відбулося перевидання альбому.
Нова обкладинка має такий вигляд:
тиць
Придбати можна тут:

Lev 
VIP


З нами з: 14.10.09
Востаннє: 09.12.16
Повідомлень: 1819

2010-08-21 21:17  
aimtoknow написано:
Гурт не вкладається в межі одного стилю. І тому точно інтерпретувати його не просто.

це точно Happy

aimtoknow написано:
До речі, відбулося перевидання альбому.


дивно, що дизайн обкладинки змінили.

Kylyna 
Свій


З нами з: 10.10.09
Востаннє: 03.08.14
Повідомлень: 146

2010-08-27 17:26  
досить файний альбом. найбільше сподобалось:
03. Черный Ворон
10. Небесное Серебро Перуна
п.м. не знаю що ти там накрутив, але воно спрацювало. дякую.

aimtoknow 
VIP


З нами з: 29.11.09
Востаннє: 14.04.11
Повідомлень: 578

2010-08-27 17:49  
Kylyna написано:
п.м. не знаю що ти там накрутив, але воно спрацювало. дякую.

Роздавав з робочого комп'ютера паралельно.

Ваш часовий пояс: GMT + 2 Години

Нова тема   Відповісти