Завантажити та скачати торренти українською


Nokturnal Mortum - To the Gates of Blasphemous Fire (1998) (Перевидання 2004) [FLAC] | Black Metal

Нові коментарі

Нова тема   Відповісти
Останній раз роздавалося Stargazer (2012-02-10)
Автор Повідомлення
aimtoknow 
VIP


З нами з: 29.11.09
Востаннє: 14.04.11
Повідомлень: 578

2010-08-09 18:37  
Nokturnal Mortum - To the Gates of Blasphemous Fire (1998) (Перевидання 2004) [FLAC] | Black Metal


Стиль: Black Metal
Країна, місто: Україна, Харків
Сайти:
Видавець: ORIANA MUSIC
Виконавці:
Knjaz Varggoth - вокал, гітара, бас
Karpath - гітара
Xaarquath - бас
Munruthel - барабани
Sataroth - клавішні
Пісні:
    1. Bestial Summoning
    2. To The Gates Of Blasphemous Fire
    3. On The Moonlight Path
    4. The Hands Of Chaos]
    5. Under The Banners Of The Horned Knjaz
    6. The 13th Asbath Celebration
    7. Cheremosh
    8. The Forgotten Ages Of Victories
    9. South Of Heaven (Slayer cover)

Тривалість: 00:53:24
Мова: англійська (1-4,6,8,9), російська (5), інструментальні (7)
Аудіо-кодек: FLAC
Бітрейт: 1072 кб/с
log
Exact Audio Copy V0.99 prebeta 5 from 4. May 2009

EAC extraction logfile from 10. March 2010, 23:44

Nokturnal Mortum / To The Gates of Blasphemous Fire (Re-Release)

Used drive : HL-DT-STDVD-RAM GH22NP20 Adapter: 0 ID: 0

Read mode : Secure
Utilize accurate stream : Yes
Defeat audio cache : Yes
Make use of C2 pointers : No

Read offset correction : 102
Overread into Lead-In and Lead-Out : No
Fill up missing offset samples with silence : Yes
Delete leading and trailing silent blocks : No
Null samples used in CRC calculations : Yes
Used interface : Native Win32 interface for Win NT & 2000

Used output format : User Defined Encoder
Selected bitrate : 128 kBit/s
Quality : High
Add ID3 tag : No
Command line compressor : C:\Program Files (x86)\FLAC\flac.exe
Additional command line options : ?8 ?V ?T "ARTIST=%a" ?T "TITLE=%t" ?T "ALBUM=%g" ?T "DATE=%y" ?T "TRACKNUMBER=%n" ?T "GENRE=%m" ?T "COMMENT=EAC FLAC ?8" %s

TOC of the extracted CD

Track | Start | Length | Start sector | End sector
---------------------------------------------------------
1 | 0:00.00 | 5:59.02 | 0 | 26926
2 | 5:59.02 | 5:26.39 | 26927 | 51415
3 | 11:25.41 | 5:23.46 | 51416 | 75686
4 | 16:49.12 | 5:09.10 | 75687 | 98871
5 | 21:58.22 | 5:56.56 | 98872 | 125627
6 | 27:55.03 | 8:30.08 | 125628 | 163885
7 | 36:25.11 | 6:07.08 | 163886 | 191418
8 | 42:32.19 | 6:51.49 | 191419 | 222292
9 | 49:23.68 | 4:00.40 | 222293 | 240332

Range status and errors

Selected range

Filename C:\Users\vvb05\Desktop\Аудио\Nokturnal Mortum - To The Gates of Blasphemous Fire (Re-Release).wav

Peak level 99.9 %
Range quality 99.9 %
Test CRC 5A840916
Copy CRC 5A840916
Copy OK

No errors occurred

AccurateRip summary

Track 1 accurately ripped (confidence 3) [D36CC643]
Track 2 accurately ripped (confidence 3) [342A5C6B]
Track 3 accurately ripped (confidence 3) [73B0FB32]
Track 4 accurately ripped (confidence 3) [508C22D1]
Track 5 accurately ripped (confidence 3) [B496E82B]
Track 6 accurately ripped (confidence 3) [A197B4FD]
Track 7 accurately ripped (confidence 3) [28D12024]
Track 8 accurately ripped (confidence 3) [7AC82672]
Track 9 accurately ripped (confidence 3) [7C24388C]

All tracks accurately ripped

End of status report
cue
REM GENRE Metal
REM DATE 1997
REM DISCID 770C8409
REM COMMENT "ExactAudioCopy v0.99pb5"
PERFORMER "Nokturnal Mortum"
TITLE "To The Gates of Blasphemous Fire (Re-Release)"
FILE "Nokturnal Mortum - To The Gates of Blasphemous Fire (Re-Release).flac" WAVE
TRACK 01 AUDIO
TITLE "Beastial Summoning"
PERFORMER "Nokturnal Mortum"
INDEX 01 00:00:00
TRACK 02 AUDIO
TITLE "To The Gates of Blasphemous Fire"
PERFORMER "Nokturnal Mortum"
INDEX 01 05:59:02
TRACK 03 AUDIO
TITLE "On The Moonlight Path"
PERFORMER "Nokturnal Mortum"
INDEX 01 11:25:41
TRACK 04 AUDIO
TITLE "The Hands of Chaos"
PERFORMER "Nokturnal Mortum"
INDEX 01 16:49:12
TRACK 05 AUDIO
TITLE "Under The Banners of The Horned Knjaz"
PERFORMER "Nokturnal Mortum"
INDEX 01 21:58:22
TRACK 06 AUDIO
TITLE "The 13th Asbath Celebration"
PERFORMER "Nokturnal Mortum"
INDEX 01 27:55:03
TRACK 07 AUDIO
TITLE "Cheremosh"
PERFORMER "Nokturnal Mortum"
INDEX 01 36:25:11
TRACK 08 AUDIO
TITLE "The Forgotten Ages of Victories"
PERFORMER "Nokturnal Mortum"
INDEX 01 42:32:19
TRACK 09 AUDIO
TITLE "South of Heaven (Slayer Cover)"
PERFORMER "Nokturnal Mortum"
INDEX 01 49:23:68
Джерело:
Також на Гуртом можна завантажити:
Додаткова інформація:
Рецензія на альбом
Цей альбом має сумнівну честь бути останнім в списку мого ознайомлення з творчістю NM (не рахуючи "Голосу Сталі", зрозуміло). На ньому був закладений фундамент звучання групи на найближчі років 10, а саме, прописані з акцентованими високими частотами і залізяками ударні, поверх яких знаходиться каламутне місиво з гітар і баса - опора під клавішні проходи і соляки. Інструментальні і аранжувальні теми мінятимуться від альбому до альбому, проте фундамент нової, ритм-секції, що дуже "поважчала", залишиться відносно незмінним. Це ж творіння - перший крок групи від "Goat Horns" до "Голосу Сталі", причому, на мій погляд, особливою оригінальністю він не блищить. Як вже говорили вище рецензенти, усе це дуже змахує на Emperor, причому по деякій замиленості матеріалу швидше навіть на "In the Nightside Eclipse". Місиво з драмсів і гітар, поверх них ті ж самі мінорні тужливі синтезаторні завивання... З усього альбому я б виділив "On the Moonlight Path", "13 th Asbath Celebration" і "Forgotten Ages of Victories", в яких, в порівнянні з іншим матеріалом, куди більше усіляких пагано-фольклорних і симфо-епічних фішок (особливо в останній), ну і "Під Прапорами Рогатого Князя", яка, незважаючи на усі свої композиторські достоїнства є НЕ найуспішнішим досвідом написання Варгготом російськомовної лірики. Втім, перший млинець комом... Інші треки, окрім що вже видавався на EP "Marble Moon" "Черемоша" виділяються рефренами, що швидше запам'ятовуються, чим якимись мелодійними або аранжувальними ходами... До речі, повертаючись до питання про лірику. Дуже забавно у банди, яка пізніше зі своїх вуст проголошувала виключно паган/НС ідеї, чути і читати в буклеті таку махрово-сатанинську лірику в кращих традиціях Dark Funeral і Belphegor. За це ставлю 7, а не 8, та і взагалі за сміливі експерименти, новаторство і неслабку зміну курсу на той момент...
Nightmare_HS
---
рецензія взята з darkside.ru /переклад з російської/
Якщо Ви справді бажаєте підтримати українське - після прослуховування, якщо музика вам сподобалась, придбайте ліцензійний диск. Підтримаймо вітчизняних виконавців!


Срібний реліз (на рейтинг впливає 50% завантаженого)
 Трекер:    Зареєстрований   

Завантажити / скачати українську музику



відео для новачків



 Зареєстрований:   2010-08-09 18:37
 Розмір:   431 MB 
 Оцінка музики:   10/10 (Голосів: 2)
   
Ваш часовий пояс: GMT + 2 Години

Нова тема   Відповісти