Завантажити та скачати торренти українською


Nokturnal Mortum - Goat Horns (1997) (Перевидання 1998) [FLAC] | Black Metal

Нові коментарі

Нова тема   Відповісти
Останній раз роздавалося aimtoknow (2011-02-05)
Автор Повідомлення
aimtoknow 
VIP


З нами з: 29.11.09
Востаннє: 14.04.11
Повідомлень: 578

2010-08-08 09:00  
Nokturnal Mortum - Goat Horns (1997) (Перевидання 1998) [FLAC] | Black Metal


Стиль: Black Metal
Країна, місто: Україна, Харків
Сайти:

Видавець: The End Records
Виконавці:
Knjaz Varggoth - вокал, гітара, бас
Karpath - гітара
Xaarquath - бас
Munruthel - барабани
Sataroth та Saturious - клавішні
Пісні:
    1. Black Moon Overture
    2. Kuyaviya
    3. Goat Horns
    4. Unholy Orathania
    5. Veles' Scrolls
    6. Kolyada
    7. Eternal Circle

Тривалість: 00:51:45
Мова: українська (6), англійська (2-6), інструментальні (1,7)
Аудіо-кодек: FLAC
Бітрейт: 984 кб/с
log
Exact Audio Copy V0.99 prebeta 5 from 4. May 2009

EAC extraction logfile from 10. March 2010, 21:52

Nokturnal Mortum / Goat Horns

Used drive : HL-DT-STDVD-RAM GH22NP20 Adapter: 0 ID: 0

Read mode : Secure
Utilize accurate stream : Yes
Defeat audio cache : Yes
Make use of C2 pointers : No

Read offset correction : 102
Overread into Lead-In and Lead-Out : No
Fill up missing offset samples with silence : Yes
Delete leading and trailing silent blocks : No
Null samples used in CRC calculations : Yes
Used interface : Native Win32 interface for Win NT & 2000

Used output format : User Defined Encoder
Selected bitrate : 128 kBit/s
Quality : High
Add ID3 tag : No
Command line compressor : C:\Program Files (x86)\FLAC\flac.exe
Additional command line options : ?8 ?V ?T "ARTIST=%a" ?T "TITLE=%t" ?T "ALBUM=%g" ?T "DATE=%y" ?T "TRACKNUMBER=%n" ?T "GENRE=%m" ?T "COMMENT=EAC FLAC ?8" %s

TOC of the extracted CD

Track | Start | Length | Start sector | End sector
---------------------------------------------------------
1 | 0:00.60 | 4:46.27 | 60 | 21536
2 | 4:47.12 | 7:02.21 | 21537 | 53207
3 | 11:49.33 | 9:05.27 | 53208 | 94109
4 | 20:54.60 | 8:05.39 | 94110 | 130523
5 | 29:00.24 | 11:46.65 | 130524 | 183538
6 | 40:47.14 | 7:08.20 | 183539 | 215658
7 | 47:55.34 | 3:50.33 | 215659 | 232941

Range status and errors

Selected range

Filename C:\Users\vvb05\Desktop\Аудио\Nokturnal Mortum - Goat Horns.wav

Peak level 100.0 %
Range quality 100.0 %
Test CRC 1E174EB4
Copy CRC 1E174EB4
Copy OK

No errors occurred

AccurateRip summary

Track 1 cannot be verified as accurate (confidence 3) [A322DD18], AccurateRip returned [36E502F0]
Track 2 cannot be verified as accurate (confidence 3) [535E6CAC], AccurateRip returned [1ACA50A3]
Track 3 cannot be verified as accurate (confidence 3) [4D1C0547], AccurateRip returned [E53C092E]
Track 4 cannot be verified as accurate (confidence 3) [301E4094], AccurateRip returned [3AA53421]
Track 5 cannot be verified as accurate (confidence 3) [E942327E], AccurateRip returned [51F8A3B9]
Track 6 cannot be verified as accurate (confidence 3) [4418D1D5], AccurateRip returned [89DCB6C4]
Track 7 cannot be verified as accurate (confidence 3) [2A8D35F0], AccurateRip returned [1536C7C0]

No tracks could be verified as accurate
You may have a different pressing from the one(s) in the database

End of status report
cue
REM GENRE "black metal"
REM DATE 1996
REM DISCID 650C2107
REM COMMENT "ExactAudioCopy v0.99pb5"
PERFORMER "Nokturnal Mortum"
TITLE "Goat Horns"
FILE "Nokturnal Mortum - Goat Horns.flac" WAVE
TRACK 01 AUDIO
TITLE "Black Moon Overture"
PERFORMER "Nokturnal Mortum"
FLAGS DCP
INDEX 00 00:00:00
INDEX 01 00:00:60
TRACK 02 AUDIO
TITLE "Kuyaviya"
PERFORMER "Nokturnal Mortum"
FLAGS DCP
INDEX 01 04:47:12
TRACK 03 AUDIO
TITLE "Goat Horns"
PERFORMER "Nokturnal Mortum"
FLAGS DCP
INDEX 00 11:47:63
INDEX 01 11:49:33
TRACK 04 AUDIO
TITLE "Unholy Orathania"
PERFORMER "Nokturnal Mortum"
FLAGS DCP
INDEX 00 20:53:15
INDEX 01 20:54:60
TRACK 05 AUDIO
TITLE "Veles' Scrolls"
PERFORMER "Nokturnal Mortum"
FLAGS DCP
INDEX 00 28:58:54
INDEX 01 29:00:24
TRACK 06 AUDIO
TITLE "Kolyada"
PERFORMER "Nokturnal Mortum"
FLAGS DCP
INDEX 00 40:45:44
INDEX 01 40:47:14
TRACK 07 AUDIO
TITLE "Eternal Circle"
PERFORMER "Nokturnal Mortum"
FLAGS DCP
INDEX 00 47:52:64
INDEX 01 47:55:34
Джерело:
Також на Гуртом можна завантажити:
Додаткова інформація:
Рецензії на альбом
Геніально. Цей альбом є тією гранню, за якою вже закінчується звичайний Black Metal і починається щось інше. Серед пісень хотілося б виділити Unholy Orathania (як найбільш мелодійну і симфонічну) і Goat Horns, що починається повільно і що поступово переходить в швидшу, можна навіть сказати ураганно швидку з елементами українського фолку. Ну і звичайно ж дві прекрасні інструментальні речі. Black Moon Overture це просто шедевр. Немає слів. І завершальну Eternal Circle - приголомшливу своєю спокійною мелодією і психоделічністю.
10 з 10. Рекомендую усім.
Vovin
____________
Не надто гарний запис альбому компенсується, воістину, досить оригінальними клавішними ходами, а українську мову в деяких композиціях посилює мелодійність музики. Особливу увагу хочеться приділити Goat Horns і Kolyada: в першому випадку вона дуже нагадує Чайковського "Ніч на лисій горі" - початок мелодійно повільний поступово переходить в скажений; у другому випадку Kolyada просто потрібна тим хто хоче усвідомити слов'янську готику, зокрема Pagan, композиція наповнена мелодійним українським фольклором у поєднанні з металом, що створює деяку атмосферу мороку і загадковості роських племен Прикарпаття. Підсумовуючи вищесказане архі раджу до прослуховування.
Gelgerot
____________
На мій погляд, "Goat Horns" - одна з кращих робіт Nokturnal Mortum за весь час існування групи. Слід відразу ж підкреслити, що незважаючи на дрібні недоліки в запису, загальну сирість і деяку недопрацьованість звучання, робота, що рецензується, була випущена в далекому 1998 року, це вже заслуговує поваги.
Отже, музика "Goat Horns" є сирим atmospheric black із західноукраїнськими фольклорними мелодіями (регіон Прикарпаття, Карпати), виконаними на клавішних.
У зв'язку з провідною роллю клавішних, гітари і злісно скримящий вокал засунуті на задній план, що створює зловісну, промерзлу і, як вже було сказано, сиру атмосферу що залишає, особисто у мене, досить темний емоційний осад. Мені не відомо про що віщають тексти, але думаю, що як частий гість Карпат, не сильно помилюся, якщо припущу, що це волання волхва до темних, мало не сатанинських духів Карпатської природи.
Висновок: Прекрасна і неповторна робота. Карпатські містерії, виряджені в black metal одяг!
Radogost
_____________
А після шедеврального "Lunar Poetry", році так в 2000-му, відкрив я для себе цей альбом.. повинен сказати, що він багато в чому програє попередникові, хоча сам по собі дуже і дуже непоганий. На превеликий жаль, з відходом Вортеракса пропали соляки, мікс альбому змінився далеко не в кращу сторону, у гітар дуже криво обрізані частоти, через що вони дуже невиразно хриплять за стіною водоспаду клавішних. Так, до речі, клавішні на цьому альбомі просто щось, але про них трохи пізніше. Вокал на записі теж дуже невиразний. Причину подібної невиразності я встановив лише нещодавно, отримавши від Варгота відповідь, що, мовляв, на запис вокалу у нього було свого часу відведено всього 40 хвилин (оскільки писався альбом у нього на квартирі), тексти він толком вивчити не встиг і інше, і інше... Тепер же про плюси. Це конгеніальні, вже згадувані вище клавішні теми. На цьому релізі гітари лише служать підтримкою до них, лідируя і ритм-партіями обіграє "верхи" і "низи"... Самі мелодії ж дуже різноманітні і некисло переплітаються одна з одною, особливо якщо відмітити "Куявію" і "Цапині Роги". Остання складається з декількох дуже тривалих і досить цікавих, змінюючих одна одну тем, від фолклорно-танцювальних мотивів до "замогильно-жахливих" переборів, а деякі місця прямо так і блищать "епічністю" і "монументальністю". "Veles Scrolls", ще один дуже довгий за тривалістю трек, залишає швидше негативне враження своєю затягнутістю і занудністью. "Оратанія" і "Коляда" скрашують це враження, оскільки мають в основі автентичні народні мотиви, що запам'ятовуються, - ні з чим іншим точно не зплутаєш. Втім, про останню тепер варто говорити швидше в контексті спліта харків'ян з поляками Graveland, де вона отримала дуже благодатний логічний і інструментальний розвиток.. В цілому, зваживши усі плюси і мінуси, ставлю сімку, три бали знімаю за зайву затягнутість, відсутність соляків і огріхи зведення і вокалу.
Nightmare_HS
---
рецензії взяті з darkside.ru /переклад з російської/
Якщо Ви справді бажаєте підтримати українське - після прослуховування, якщо музика вам сподобалась, придбайте ліцензійний диск. Підтримаймо вітчизняних виконавців!


Срібний реліз (на рейтинг впливає 50% завантаженого)
 Трекер:    Зареєстрований   

Завантажити / скачати українську музику



відео для новачків



 Зареєстрований:   2010-08-08 09:00
 Розмір:   373 MB 
 Оцінка музики:   10/10 (Голосів: 2)
   
Ваш часовий пояс: GMT + 2 Години

Нова тема   Відповісти