Завантажити та скачати торренти українською


Nokturnal Mortum - Return of the Vampire Lord - Marble Moon [Краще/Компіляція] (2003) [FLAC] | Black Metal

Нові коментарі

Нова тема   Відповісти
Останній раз роздавалося shtoz (2011-12-22)
Автор Повідомлення
aimtoknow 
VIP


З нами з: 29.11.09
Востаннє: 14.04.11
Повідомлень: 578

2010-08-07 14:40  
Nokturnal Mortum - Return of the Vampire Lord - Marble Moon [Краще/Компіляція] (2003) [FLAC] | Black Metal


Стиль: Black Metal
Країна, місто: Україна, Харків
Сайти:

Видавець: ORIANA MUSIC
Виконавці:
Varggoth - ритм-гітара, вокал
Warterax - ведуча гітара
Xaarquath - бас-гітара
Sataroth - клавішні
Munruthel - барабани
Пісні:
    Part one
    01. Return Of The Vampire Lord
    02. Mi Agama Khaz Mifisto
    03. Cristaline Darkness
    Part two
    04. Intro / Hymn Of Our Fatherland
    05. On The Moonlight Path (Demo Version)
    06. Через Річку, Через Гай (Instrumental Version)
    07. Family Vault (Cover Of Death SS)
    08. Черемош (Demo Version)
    09. Через Річку, Через Гай (Ластівка)
    Part three
    10. My Journey To The Stars (Cover Of Burzum)
    11. Turisaz (Cover Of Graveland)

Тривалість: 01:00:34
Мова: українська (6,9), англійська (1-3,5,7,10,11), інструментальні (4,8)
Аудіо-кодек: FLAC
Бітрейт: 959 кб/с
log
Exact Audio Copy V0.99 prebeta 5 from 4. May 2009

EAC extraction logfile from 10. March 2010, 23:01

Nokturnal Mortum / Return Of The Vampire Lord & Marble Moon

Used drive : HL-DT-STDVD-RAM GH22NP20 Adapter: 0 ID: 0

Read mode : Secure
Utilize accurate stream : Yes
Defeat audio cache : Yes
Make use of C2 pointers : No

Read offset correction : 102
Overread into Lead-In and Lead-Out : No
Fill up missing offset samples with silence : Yes
Delete leading and trailing silent blocks : No
Null samples used in CRC calculations : Yes
Used interface : Native Win32 interface for Win NT & 2000

Used output format : User Defined Encoder
Selected bitrate : 128 kBit/s
Quality : High
Add ID3 tag : No
Command line compressor : C:\Program Files (x86)\FLAC\flac.exe
Additional command line options : ?8 ?V ?T "ARTIST=%a" ?T "TITLE=%t" ?T "ALBUM=%g" ?T "DATE=%y" ?T "TRACKNUMBER=%n" ?T "GENRE=%m" ?T "COMMENT=EAC FLAC ?8" %s

TOC of the extracted CD

Track | Start | Length | Start sector | End sector
---------------------------------------------------------
1 | 0:00.00 | 11:33.23 | 0 | 51997
2 | 11:33.23 | 5:14.66 | 51998 | 75613
3 | 16:48.14 | 4:30.11 | 75614 | 95874
4 | 21:18.25 | 2:33.42 | 95875 | 107391
5 | 23:51.67 | 5:33.61 | 107392 | 132427
6 | 29:25.53 | 1:12.22 | 132428 | 137849
7 | 30:38.00 | 4:38.41 | 137850 | 158740
8 | 35:16.41 | 6:27.32 | 158741 | 187797
9 | 41:43.73 | 2:40.51 | 187798 | 199848
10 | 44:24.49 | 7:42.15 | 199849 | 234513
11 | 52:06.64 | 8:27.43 | 234514 | 272581

Range status and errors

Selected range

Filename C:\Users\vvb05\Desktop\Аудио\Nokturnal Mortum - Return Of The Vampire Lord & Marble Moon.wav

Peak level 97.3 %
Range quality 99.9 %
Test CRC DCE8CE31
Copy CRC DCE8CE31
Copy OK

No errors occurred

AccurateRip summary

Track 1 accurately ripped (confidence 3) [3F630CAA]
Track 2 accurately ripped (confidence 3) [06A2928E]
Track 3 accurately ripped (confidence 3) [05C440F4]
Track 4 accurately ripped (confidence 3) [E9F9D7D4]
Track 5 accurately ripped (confidence 3) [59E89D3B]
Track 6 accurately ripped (confidence 3) [97D1EA93]
Track 7 accurately ripped (confidence 3) [1A4F41BF]
Track 8 accurately ripped (confidence 3) [2729B324]
Track 9 accurately ripped (confidence 3) [3153FCC3]
Track 10 accurately ripped (confidence 3) [97E88A71]
Track 11 accurately ripped (confidence 3) [8D1F89CC]

All tracks accurately ripped

End of status report
cue
REM GENRE "Folk Symphonic Black Metal"
REM DATE 2001
REM DISCID 8A0E320B
REM COMMENT "ExactAudioCopy v0.99pb5"
PERFORMER "Nokturnal Mortum"
TITLE "Return Of The Vampire Lord & Marble Moon"
FILE "Nokturnal Mortum - Return Of The Vampire Lord & Marble Moon.flac" WAVE
TRACK 01 AUDIO
TITLE "Return Of The Vampire Lord"
PERFORMER "Nokturnal Mortum"
INDEX 01 00:00:00
TRACK 02 AUDIO
TITLE "Mi Agama Khaz Mifisto"
PERFORMER "Nokturnal Mortum"
INDEX 01 11:33:23
TRACK 03 AUDIO
TITLE "Crystaline Darkness"
PERFORMER "Nokturnal Mortum"
INDEX 01 16:48:14
TRACK 04 AUDIO
TITLE "Intro / Hymn of Our Fahterland"
PERFORMER "Nokturnal Mortum"
INDEX 01 21:18:25
TRACK 05 AUDIO
TITLE "Ont the Moonlight Path (demo version)"
PERFORMER "Nokturnal Mortum"
INDEX 01 23:51:67
TRACK 06 AUDIO
TITLE "Cherez rechku, cherez les (instrumental version)"
PERFORMER "Nokturnal Mortum"
INDEX 01 29:25:53
TRACK 07 AUDIO
TITLE "Family Vault (cover of Death SS)"
PERFORMER "Nokturnal Mortum"
INDEX 01 30:38:00
TRACK 08 AUDIO
TITLE "Cheremosh (demo version)"
PERFORMER "Nokturnal Mortum"
INDEX 01 35:16:41
TRACK 09 AUDIO
TITLE "Cherez rechku, cherez les"
PERFORMER "Nokturnal Mortum"
INDEX 01 41:43:73
TRACK 10 AUDIO
TITLE "My Journey to the Stars (cover of Burzum)"
PERFORMER "Nokturnal Mortum"
INDEX 01 44:24:49
TRACK 11 AUDIO
TITLE "Turisaz (cover of Graveland)"
PERFORMER "Nokturnal Mortum"
INDEX 01 52:06:64
Джерело:
Також на Гуртом можна завантажити:
Додаткова інформація:
Рецензія на альбом
"Return of the Vampire Lord" - проміжна ланка між "Lunar Poetry" і "Goat Horns", після якого з музики групи начисто зникли гітарні соло, а рифи були засунуті на задній план, за клавіші. Тут же достоїнства "Місячної Поезії" представлені в усій красі. Заголовний трек примітний, по-перше, просто гіпермелодійністю, витікаючою від помпезних клавіш і тих самих соляків і усіляких гітарних фішечок на зразок гри в інтервал, октаву і так далі. Сама структура композиції теж дуже некволо міняється від рифу до рифу, переходячи від похмуро-урочистої до забійно-триольної, маршевої і навпаки. Усе зліплено дуже тямущо, усе соло, різноманітні фольково-стилістичні середньовічні вставки у вигляді акустичної гітари перекликаються із заголовною темою, при цьому не тупо копіюючи її в нуль. Інші два треки є самими класичними raw BM, який група грала на зорі свого існування під назвою "Crystalline Darkness". Перехід від польоту думки "Лорда Вампірів" до "Mi Agama Khaz Mefisto" вийшов дуже різким, тому як остання сходу відкривається тим, що брязкають маршевим рифом, поступово переходячи у воїстину бісівський танець. Завершальна композиція є чимось таким сиро-депресивно-похмурим у дусі Burzum і Nargaroth, непогане завершення.
Nightmare_HS
---
рецензія взята з darkside.ru /переклад з російської/
Якщо Ви справді бажаєте підтримати українське - після прослуховування, якщо музика вам сподобалась, придбайте ліцензійний диск. Підтримаймо вітчизняних виконавців!


Срібний реліз (на рейтинг впливає 50% завантаженого)
 Трекер:    Зареєстрований   

Завантажити / скачати українську музику



відео для новачків



 Зареєстрований:   2010-08-09 19:36
 Розмір:   424 MB 
 Оцінка музики:   10/10 (Голосів: 3)
   
aimtoknow 
VIP


З нами з: 29.11.09
Востаннє: 14.04.11
Повідомлень: 578

2010-08-09 19:39  
Трохи накосячив у цьому релізі. Трохи заплутався в усіх цих перевиданнях...
Інформація дещо змінена (тепер все вірно).
Прохання повторно промодерувати реліз.
Вибачаюся за незручності!

Ваш часовий пояс: GMT + 2 Години

Нова тема   Відповісти