Завантажити та скачати торренти українською


Ivanov Down - Killing Power : Live in Dead End, 1992 (2009) [FLAC] | Lo-Fi Noise Rock / Experimental

Нові коментарі

Нова тема   Відповісти
Останній раз роздавалося semenovskyj (2012-03-20)
Автор Повідомлення
Lev 
VIP


З нами з: 14.10.09
Востаннє: 09.12.16
Повідомлень: 1819

2010-08-03 02:39  
Ivanov Down - Killing Power : Live in Dead End, 1992 (2009) [FLAC] | Lo-Fi Noise Rock / Experimental



Стиль: Lo-Fi Noise Rock / Experimental
Країна, місто: Україна, Київ
Видавець: Down Records
Виконавці:
Олексій Дегтяр "Макет" - голос, гітара
Олег Соколов - бас-гітара
Юра Мельник - гітара
Костя Довженко - барабани
Тарас Мороз - акустична гітара (1,5)
Пісні:
    01. My Voice (06:21)
    02. Killing Power (02:55)
    03. Come on Baby (03:42)
    04. Down Shake (02:59)
    05. Breakdown mind (02:05)
    06. Killing Time (03:20)
    07. Nice You (04:36)
    08. Down Power (01:20)
    09. Simple Down (05:31)
    10. Killing Power coda (02:26)

Тривалість: 00:35:14
Мова: псевдоанглійська
Аудіо-кодек: FLAC
Бітрейт: 801- 1014 кб/с, 16 bit / 44100 Hz
Джерело: CD-ріп -> інший торрент-трекер
Додаткова інформація:
log-файл
Exact Audio Copy V0.99 prebeta 5 from 4. May 2009

Отчёт EAC об извлечении, выполненном 14. июля 2010, 2:03

Ivanov Down / Killing Power

Дисковод: PIONEER DVD-RW DVR-212 Adapter: 1 ID: 0

Режим чтения : Достоверность
Использование точного потока : Да
Отключение кэша аудио : Да
Использование указателей C2 : Нет

Комбинированное смещение чтения/записи : 48
Способность читать области Lead-in и Lead-out : Нет
Заполнение пропущенных сэмплов тишиной : Да
Удаление блоков с тишиной в начале и конце : Нет
При вычислениях CRC использовались нулевые сэмплы : Нет
Интерфейс : Встроенный Win32-интерфейс для Win NT/2000

Выходной формат : Внутренние WAV-операции
Формат сэмплов : 44.100 Гц; 16 бит; стерео

TOC извлечённого CD

Трек | Старт | Длительность | Начальный сектор | Конечный сектор
---------------------------------------------------------------------
1 | 0:00.00 | 6:18.73 | 0 | 28422
2 | 6:18.73 | 2:52.52 | 28423 | 41374
3 | 9:11.50 | 3:40.03 | 41375 | 57877
4 | 12:51.53 | 2:56.50 | 57878 | 71127
5 | 15:48.28 | 2:02.71 | 71128 | 80348
6 | 17:51.24 | 3:17.67 | 80349 | 95190
7 | 21:09.16 | 4:34.36 | 95191 | 115776
8 | 25:43.52 | 1:17.71 | 115777 | 121622
9 | 27:01.48 | 5:30.52 | 121623 | 146424
10 | 32:32.25 | 2:23.56 | 146425 | 157205

Характеристики диапазона извлечения и сообщения об ошибках

Выбранный диапазон

Имя файла G:\Torrents\Ivanov Down\1992-Killing Power (APE)\Ivanov Down - Killing Power.wav

Пиковый уровень 79.3 %
Качество диапазона 100.0 %
CRC теста E0AE2182
CRC копии E0AE2182
Копирование... OK

Ошибок не произошло

Конец отчёта
Виданий нещодавно власним лейблом групи, Down Records, цей запис дає нам змогу почути, яким був Ivanov Down 1992 року.
Також реліз цінний тим, що програма цього концерту, який відбувся в київському клубі Dead End в лютому 1992 р.,
є цілком відмінною від вінрарного альбому Best Urban Technical Noises (1991).

Окрім серйозно зміненого складу групи (попередній, за переказами, розпався після запису повноформатника у 1991 році) і оновленого звучання, диск демонструє нам експерименти вже не з вигаданою "даунською" мовою, а з не менш химерною псевдоанглійською.

Роздача містить поліграфію релізу.


Також на Торрент-Толоці Гуртом ви можете знайти :

Ivanov Down - Best Urban Technical Noises (1991, перевид.2009) [FLAC]




Якщо Ви справді бажаєте підтримати українське - після прослуховування, якщо музика вам сподобалась, придбайте ліцензійний диск. Підтримаймо вітчизняних виконавців!


Срібний реліз (на рейтинг впливає 50% завантаженого)
 Трекер:    Зареєстрований   

Завантажити / скачати українську музику



відео для новачків



 Зареєстрований:   2010-08-03 02:39
 Розмір:   238 MB 
 Оцінка музики:   10/10 (Голосів: 5)
   
jinotot 
Почесний оцифрувальник літератури


З нами з: 28.01.09
Востаннє: 04.12.16
Повідомлень: 3235

2010-08-03 20:28  
Lev! Якщо можна, вміст лоґ-файлу — в опис під спойлер, будь ласка! Ну, і ще було б дуже гарно пододавати лінки на інші релізи гурту на Толоці.
Lev 
VIP


З нами з: 14.10.09
Востаннє: 09.12.16
Повідомлень: 1819

2010-08-05 01:51  
jinotot

усе додав Happy

Lev 
VIP


З нами з: 14.10.09
Востаннє: 09.12.16
Повідомлень: 1819

2010-08-11 11:43  
шановні модератори, перевірте реліз!
Tarasyk 
Відео Гуртом - фільмокрай
Відео Гуртом - фільмокрай


З нами з: 26.08.09
Востаннє: 28.11.16
Повідомлень: 5972

2010-08-11 12:53  
Вибачайте за затримки - самі розумієте - літо, спека Wink (2) Навіть модери як сонні мухи))
Здається більше немає претенізій, тому поставив "перевірено" і медальку причепив.

Ваш часовий пояс: GMT + 2 Години

Нова тема   Відповісти