Завантажити та скачати торренти українською


Моноліт - Жити, а не існувати (2010) [FLAC] | Heavy metal

Нові коментарі

Нова тема   Відповісти
Останній раз роздавалося natashelka (2016-12-03)
Автор Повідомлення
Wolf1488 
VIP


З нами з: 20.10.09
Востаннє: 03.12.16
Повідомлень: 429

2010-07-18 17:12  
Моноліт - Жити, а не існувати (2010) [FLAC] | Heavy metal



Стиль: Heavy metal
Країна, місто: Україна, Шостка
Сайти: Офіційний сайт
Видавець: Universal/Ukrainian Music
Виконавці:
Костянтин Гордейчук — вокал,
Микола Григор'ян — гітара,
Павлj Коновалов — бас-гітара,
Максим Доля — гітара,
Сергій Воробйов — ударні
Пісні:
    01. Жити, а не існувати
    02. Напролом
    03. Де і коли
    04. Моноліт
    05. Слава Україні
    06. Я не вірю у ці сни
    07. Шлях до мрії
    08. Дума про сонце
    09. Монолит
    10. Тень и свет
CUE-файл
REM GENRE "Heavy Metal"
REM DATE 2010
REM DISCID 8312310B
REM COMMENT "ExactAudioCopy v0.95b3"
PERFORMER "МОНОЛІТ"
TITLE "Жити, а не існувати"
FILE "01. МОНОЛІТ - Жити, а не існувати.wav" WAVE
TRACK 01 AUDIO
TITLE "01. МОНОЛІТ - Жити, а не існувати"
PERFORMER "МОНОЛІТ"
FLAGS DCP
INDEX 01 00:00:00
TRACK 02 AUDIO
TITLE "02. МОНОЛІТ - Напролом"
PERFORMER "МОНОЛІТ"
FLAGS DCP
INDEX 00 07:06:41
FILE "02. МОНОЛІТ - Напролом.wav" WAVE
INDEX 01 00:00:00
TRACK 03 AUDIO
TITLE "03. МОНОЛІТ - Де і коли"
PERFORMER "МОНОЛІТ"
FLAGS DCP
INDEX 00 04:25:56
FILE "03. МОНОЛІТ - Де і коли.wav" WAVE
INDEX 01 00:00:00
TRACK 04 AUDIO
TITLE "04. МОНОЛІТ - Моноліт"
PERFORMER "МОНОЛІТ"
FLAGS DCP
INDEX 00 07:19:06
FILE "04. МОНОЛІТ - Моноліт.wav" WAVE
INDEX 01 00:00:00
TRACK 05 AUDIO
TITLE "05. МОНОЛІТ - Слава Україні"
PERFORMER "МОНОЛІТ"
FLAGS DCP
INDEX 00 06:18:50
FILE "05. МОНОЛІТ - Слава Україні.wav" WAVE
INDEX 01 00:00:00
TRACK 06 AUDIO
TITLE "06. МОНОЛІТ - Я не вірю у ці сни"
PERFORMER "МОНОЛІТ"
FLAGS DCP
INDEX 00 05:41:45
FILE "06. МОНОЛІТ - Я не вірю у ці сни.wav" WAVE
INDEX 01 00:00:00
TRACK 07 AUDIO
TITLE "07. МОНОЛІТ - Шлях до мрії"
PERFORMER "МОНОЛІТ"
FLAGS DCP
INDEX 00 06:51:33
FILE "07. МОНОЛІТ - Шлях до мрії.wav" WAVE
INDEX 01 00:00:00
TRACK 08 AUDIO
TITLE "08. МОНОЛІТ - Дума про сонце"
PERFORMER "МОНОЛІТ"
FLAGS DCP
INDEX 00 05:27:25
FILE "08. МОНОЛІТ - Дума про сонце.wav" WAVE
INDEX 01 00:00:00
TRACK 09 AUDIO
TITLE "09. МОНОЛІТ - Монолит (рус)"
PERFORMER "МОНОЛІТ"
FLAGS DCP
INDEX 00 08:33:42
FILE "09. МОНОЛІТ - Монолит (рус).wav" WAVE
INDEX 01 00:00:00
TRACK 10 AUDIO
TITLE "10. МОНОЛІТ - Тень и свет"
PERFORMER "МОНОЛІТ"
FLAGS DCP
INDEX 00 06:36:36
FILE "10. МОНОЛІТ - Тень и свет.wav" WAVE
INDEX 01 00:00:00
EAC

EAC extraction logfile from 2. July 2010, 9:44 for CD
МОНОЛІТ / Жити, а не існувати
Used drive : ASUS DRW-1814BL Adapter: 0 ID: 0
Read mode : Secure with NO C2, accurate stream, disable cache
Read offset correction : 6
Overread into Lead-In and Lead-Out : No

Used output format : C:\Program Files\Exact Audio Copy1\Flac\flac.exe (User Defined Encoder)
128 kBit/s
Additional command line options : -8 -V -T "ARTIST=%a" -T "TITLE=%t" -T "ALBUM=%g" -T "DATE=%y" -T "TRACKNUMBER=%n" -T "GENRE=%m" -T "COMMENT=EAC FLAC -8" %s

Other options :
Fill up missing offset samples with silence : Yes
Delete leading and trailing silent blocks : No
Native Win32 interface for Win NT & 2000

Track 1
Filename C:\Program Files\Exact Audio Copy1\Flac\01. МОНОЛІТ - Жити, а не існувати.wav

Pre-gap length 0:00:02.00

Peak level 96.5 %
Track quality 100.0 %
Test CRC BD825AB5
Copy CRC BD825AB5
Copy OK

Track 2
Filename C:\Program Files\Exact Audio Copy1\Flac\02. МОНОЛІТ - Напролом.wav

Pre-gap length 0:00:02.00

Peak level 96.4 %
Track quality 100.0 %
Test CRC 9D03DE06
Copy CRC 9D03DE06
Copy OK

Track 3
Filename C:\Program Files\Exact Audio Copy1\Flac\03. МОНОЛІТ - Де і коли.wav

Pre-gap length 0:00:02.00

Peak level 96.5 %
Track quality 100.0 %
Test CRC EAC22166
Copy CRC EAC22166
Copy OK

Track 4
Filename C:\Program Files\Exact Audio Copy1\Flac\04. МОНОЛІТ - Моноліт.wav

Pre-gap length 0:00:02.00

Peak level 96.5 %
Track quality 100.0 %
Test CRC 5F755CAF
Copy CRC 5F755CAF
Copy OK

Track 5
Filename C:\Program Files\Exact Audio Copy1\Flac\05. МОНОЛІТ - Слава Україні.wav

Pre-gap length 0:00:02.00

Peak level 96.5 %
Track quality 100.0 %
Test CRC 503AE0AA
Copy CRC 503AE0AA
Copy OK

Track 6
Filename C:\Program Files\Exact Audio Copy1\Flac\06. МОНОЛІТ - Я не вірю у ці сни.wav

Pre-gap length 0:00:02.00

Peak level 96.5 %
Track quality 100.0 %
Test CRC CB9A93FD
Copy CRC CB9A93FD
Copy OK

Track 7
Filename C:\Program Files\Exact Audio Copy1\Flac\07. МОНОЛІТ - Шлях до мрії.wav

Pre-gap length 0:00:02.00

Peak level 96.5 %
Track quality 100.0 %
Test CRC AA40B726
Copy CRC AA40B726
Copy OK

Track 8
Filename C:\Program Files\Exact Audio Copy1\Flac\08. МОНОЛІТ - Дума про сонце.wav

Pre-gap length 0:00:02.00

Peak level 96.5 %
Track quality 100.0 %
Test CRC 3FEFFF5B
Copy CRC 3FEFFF5B
Copy OK

Track 9
Filename C:\Program Files\Exact Audio Copy1\Flac\09. МОНОЛІТ - Монолит (рус).wav

Pre-gap length 0:00:02.00

Peak level 96.6 %
Track quality 100.0 %
Test CRC 5742DCD5
Copy CRC 5742DCD5
Copy OK

Track 10
Filename C:\Program Files\Exact Audio Copy1\Flac\10. МОНОЛІТ - Тень и свет.wav

Pre-gap length 0:00:02.00

Peak level 96.5 %
Track quality 100.0 %
Test CRC 1796D7C6
Copy CRC 1796D7C6
Copy OK

No errors occured

End of status report
Тривалість: 01:04:39
Мова: українська (1-8), російська (9-10)
Аудіо-кодек: FLAC
Бітрейт: 903 - 1096 кб/с
Джерело: Інтернет

Також на Толоці Ви можете знайти:
Моноліт - Жити, а не існувати (2010) [MP3 320 кб/с]


Якщо Ви справді бажаєте підтримати українське - після прослуховування, якщо музика вам сподобалась, придбайте ліцензійний диск. Підтримаймо вітчизняних виконавців!


Срібний реліз (на рейтинг впливає 50% завантаженого)
 Трекер:    Зареєстрований   

Завантажити / скачати українську музику



відео для новачків



 Зареєстрований:   2010-07-18 17:12
 Розмір:   467 MB 
 Оцінка музики:   6.2/10 (Голосів: 20)
   
bot 
робот


З нами з: 30.09.07
Востаннє: 26.05.05
Повідомлень: 15983

2010-07-18 17:16  
Тему перенесено з Поп, естрада до форуму Рок, Метал, Альтернатива, Панк, СКА


Wolf1488

POMEO 
Відео Гуртом - запис з ТБ
Відео Гуртом - запис з ТБ


З нами з: 01.07.08
Востаннє: 01.12.16
Повідомлень: 785

2010-08-17 12:04  
Гарний альбом - мені сподобався.
Не качатиму, бо маю надію якось придбати його Happy

Wolf1488 
VIP


З нами з: 20.10.09
Востаннє: 03.12.16
Повідомлень: 429

2010-08-17 19:34  
Я купив на зльоті у Яремче...
POMEO 
Відео Гуртом - запис з ТБ
Відео Гуртом - запис з ТБ


З нами з: 01.07.08
Востаннє: 01.12.16
Повідомлень: 785

2010-08-28 18:16  
Сьогодні і я придбав цей альбом Happy Чув, що наступний диск буде повністю російськомовним... гади Sad (1)
Автор 
Частий відвідувач


З нами з: 28.10.10
Востаннє: 10.11.14
Повідомлень: 29

2010-11-06 14:26  
Непогано, от тільки на такий текст не варто класти таку музику. Текст сильний, а музика якась у стилі готів.
Тож за текст п'ять балів поставив, (а музику десь чотири з мінусом.)

Цитата:
Чув, що наступний диск буде повністю російськомовним... гади

Так, дійсно щось вони не на жарт заганяють.

POMEO 
Відео Гуртом - запис з ТБ
Відео Гуртом - запис з ТБ


З нами з: 01.07.08
Востаннє: 01.12.16
Повідомлень: 785

2010-11-06 15:10  
Та мабуть грошей хочуть заробити...
Автор 
Частий відвідувач


З нами з: 28.10.10
Востаннє: 10.11.14
Повідомлень: 29

2010-11-07 06:11  
Цитата:
Та мабуть грошей хочуть заробити...

Сподіваюсь те затьмарення у них тимчасове, може таки прийдуть до себе.Wink (2)
По текстам, цілком націоналістично-адекватні люди, якого їх понесло на той російський якщо вже рідною співають, не вже справді гроші?!

До речі, згадав кого вони мені нагадують своїм стилем музики, нагадують гурт "Арія" (з Кіпєловим).

Seriy100293 
VIP


З нами з: 17.08.11
Востаннє: 04.09.16
Повідомлень: 307

2012-08-24 23:46  
Мені сподобалось, чекаю наступного альбому.

Додано через 31 секунду:

Ніхто, часом, не знає, коли новий альбом у них вийде?

Seriy100293 
VIP


З нами з: 17.08.11
Востаннє: 04.09.16
Повідомлень: 307

2012-11-23 20:19  
POMEO
Автор
Все-таки вийшов новий альбом російською... Neutral
Але це, як казав мені їх фронтмен, було натхнення. Наступний, можливо, буде взагалі англійською.

POMEO 
Відео Гуртом - запис з ТБ
Відео Гуртом - запис з ТБ


З нами з: 01.07.08
Востаннє: 01.12.16
Повідомлень: 785

2012-11-30 19:31  
Seriy100293 написано:
Наступний, можливо, буде взагалі англійською

нещодавно бачив їх виступ на фесті - англійською співає ще гірше ніж російською

galushkapanchenko.tatjana 
Новенький


З нами з: 09.09.12
Востаннє: 16.06.14
Повідомлень: 11

2012-12-01 17:11  
даю сто відсотків, що даний гурт свої наступні речі почне виконувати як не англійською так кацапською мовами. в наш час щоб розрулювати такий музичний жанр то потрібно розкручуватись в кацапів ( і дешевше, і більш реальніше ) за кордоном дуже важко, а у нас хеві нікому не потрібен... Народ наче здурів на попсі, аренбі і іншій єрунді.
Oleksa9 
Поважний учасник


З нами з: 17.05.12
Востаннє: 04.12.16
Повідомлень: 225

2012-12-01 19:25  
Головне ЯК ти граєш/співаєш, а не якою мовою, якщо лайнюче граєш/співаєш, то зміна мови не допоможе.... а лизати зади з переходом на іншу мову хохли вміють..... та поваги від такого не отримаєш, лише насміх та зневагу.... колись була Україна, а тепер хохляндія Sad (2)
Ваш часовий пояс: GMT + 2 Години

Нова тема   Відповісти